Жалобы на работу трекера ! прошу сюда :)

Игра лжецов: Рождённый заново / Игра лжецов: Возрождение / Liar Game: Saisei / Liar Game: Reborn (Нироаки Мацуяма) [2012 г., Психологический триллер, HDTVRip] DVO GREEN TEA

Ответить на тему
 
Автор Сообщение

pandora2177 ®

Стаж: 3 года 10 месяцев

Сообщений: 368

Пост 28-Янв-2013 11:16

[Цитировать]

Игра лжецов: Рождённый заново
Игра лжецов: Возрождение / Liar Game: Saisei / Liar Game: Reborn

-
Год выпуска: 2012
Страна: Япония
Жанр: Психологический триллер
Продолжительность: 2:10:27
-
Перевод: Двухголосый (закадровый) Виктор Ерёменко и Ольга Гринтиева
-
Режиссер: Нироаки Мацуяма
В ролях:
Акияма Шиничи - Мацуда Шота
Шиномия Ю - Макако Табэ
Фукунага Юджи - Сузуки Косуке
Ёкоя - Сузуки Казума
Элис - Мана Ашида
и др.
-
Описание: Секретариат Игры Лжецов решил отомстить предыдущим участникам за свой проигрыш в финальном раунде. Главный обидчик - Акияма Шиничи. Через его студентку, Шиномию Ю, Секретариату вновь удалось заманить Акияму в эту жестокую игру. Кто победит на этот раз? Кто попытается обмануть всех и будет повержен, а кто будет обманут и попытается выйти из этого положения! Смотрите и узнаете!
-
Доп. информация:
Фильм подготовлен при поддержке milaya0906
Перевод: Demidine & NutaV
Релиз: группа GREEN TEA
Оформление постера: dusy78

-
Качество: BDRip
Формат: MKV
Видео кодек: Кодек V_MPEG4/ISO/AVC
Аудио кодек: AC3
Видео: Кодек V_MPEG4/ISO/AVC, 1280x690, 3184 Kbps, 23.976 fps
Аудио: AC3, 6 ch, 448 Кбит/с, 48,0 КГц

МедиаИнфо

Формат : AVC
Формат/Информация : Advanced Video Codec
Профиль формата : High@L4.1
Параметр CABAC формата : Да
Параметр ReFrames формата : 9 кадров
Режим смешивания : Header stripping
Идентификатор кодека : V_MPEG4/ISO/AVC
Продолжительность : 2 ч. 10 м.
Битрейт : 3281 Кбит/сек
Ширина : 1280 пикселей
Высота : 690 пикселей
Соотношение сторон : 1,855
Частота кадров : 23,976 кадра/сек
Цветовое пространство : YUV
Субдискретизация насыщенности : 4:2:0
Битовая глубина : 8 бит
Тип развёртки : Прогрессивная
Бит/(Пиксели*Кадры) : 0.155
Размер потока : 2,92 Гбайт (86%)
Библиотека кодирования : x264 core 125 r2208 d9d2288
Настройки программы : cabac=1 / ref=9 / deblock=1:-3:-3 / analyse=0x3:0x113 / me=umh / subme=10 / psy=1 / psy_rd=1.05:0.10 / mixed_ref=1 / me_range=48 / chroma_me=1 / trellis=2 / 8x8dct=1 / cqm=2 / deadzone=21,11 / fast_pskip=0 / chroma_qp_offset=-2 / threads=12 / lookahead_threads=2 / sliced_threads=0 / nr=0 / decimate=1 / interlaced=0 / bluray_compat=0 / constrained_intra=0 / bframes=6 / b_pyramid=2 / b_adapt=2 / b_bias=0 / direct=3 / weightb=1 / open_gop=0 / weightp=2 / keyint=250 / keyint_min=23 / scenecut=40 / intra_refresh=0 / rc_lookahead=60 / rc=2pass / mbtree=0 / bitrate=3281 / ratetol=2.0 / qcomp=0.70 / qpmin=1 / qpmax=63 / qpstep=4 / cplxblur=20.0 / qblur=0.5 / vbv_maxrate=40000 / vbv_bufsize=30000 / nal_hrd=none / ip_ratio=1.40 / pb_ratio=1.30 / aq=2:1.00
Язык : English
Default : Да
Forced : Нет
Основные цвета : BT.709-5, BT.1361, IEC 61966-2-4, SMPTE RP177
Характеристики трансфера : BT.709-5, BT.1361
Коэффициенты матрицы : BT.709-5, BT.1361, IEC 61966-2-4 709, SMPTE RP177
Аудио
Идентификатор : 2
Формат : AC-3
Формат/Информация : Audio Coding 3
Расширение режима : CM (complete main)
Режим смешивания : Header stripping
Идентификатор кодека : A_AC3
Продолжительность : 2 ч. 10 м.
Вид битрейта : Постоянный
Битрейт : 448 Кбит/сек
Каналы : 6 каналов
Расположение каналов : Front: L C R, Side: L R, LFE
Частота : 48,0 КГц
Битовая глубина : 16 бит
Метод сжатия : С потерями
Размер потока : 419 Мбайт (12%)
Default : Да
Forced : Нет

Скриншоты





Альтернативная раздача AVI http://tracker.green-tea.tv/viewtopic.php?t=157
[Профиль] [ЛС]

Johnny

Стаж: 3 года 10 месяцев

Сообщений: 7

Пост 28-Янв-2013 16:10 (спустя 4 часа)

[Цитировать]

[Профиль] [ЛС]

KOI__8

Стаж: 3 года 10 месяцев

Сообщений: 3

Пост 29-Янв-2013 14:01 (спустя 21 час)

[Цитировать]

Печаль беда .
[Профиль] [ЛС]

Ульяна Громова

Стаж: 3 года 10 месяцев

Сообщений: 219

Пост 29-Янв-2013 14:11 (спустя 10 минут)

[Цитировать]

KOI__8, что за печаль?
[Профиль] [ЛС]

KOI__8

Стаж: 3 года 10 месяцев

Сообщений: 3

Пост 29-Янв-2013 14:14 (спустя 3 минуты)

[Цитировать]

Порядок просмотра не заню данного фильма
[Профиль] [ЛС]

pandora2177 ®

Стаж: 3 года 10 месяцев

Сообщений: 368

Пост 29-Янв-2013 14:44 (спустя 29 минут)

[Цитировать]

KOI__8, сначала два сезона сериала, потом фильм 2010 года (у нас есть тут), потом этот. В промежутке еще можно глянуть мини сериал 4 серии "Алиса в игре лжецов". Вроде все.
[Профиль] [ЛС]

InDEeC

Стаж: 2 года 2 месяца

Сообщений: 39

Откуда: Москва

Пост 16-Окт-2014 10:30 (спустя 1 год 8 месяцев)

[Цитировать]

Встаньте на раздачу плз...
[Профиль] [ЛС]

nolik

Стаж: 3 года 9 месяцев

Сообщений: 27

Пост 01-Фев-2016 12:57 (спустя 1 год 3 месяца)

[Цитировать]

Пожалуйста, встаньте на раздачу.
[Профиль] [ЛС]

nolik

Стаж: 3 года 9 месяцев

Сообщений: 27

Пост 15-Фев-2016 13:33 (спустя 14 дней)

[Цитировать]

Пожалуйста, встаньте на раздачу. Пожалуйста...
[Профиль] [ЛС]

nolik

Стаж: 3 года 9 месяцев

Сообщений: 27

Пост 16-Фев-2016 06:24 (спустя 16 часов)

[Цитировать]

Спасибо, все скачала.
[Профиль] [ЛС]
Показать сообщения:    
Ответить на тему

Текущее время: Сегодня 09:38

Часовой пояс: GMT



Вы не можете начинать темы
Вы не можете отвечать на сообщения
Вы не можете редактировать свои сообщения
Вы не можете удалять свои сообщения
Вы не можете голосовать в опросах
Вы не можете прикреплять файлы к сообщениям
Вы не можете скачивать файлы