Жалобы на работу трекера ! прошу сюда :)

Воспоминания о будущем / Ashita no kioku / Memories of Tomorrow (Юкихико Цуцуми / Yukihiko Tsutsumi) [2006 г., драма, DVDRip] DVO GREEN TEA

Ответить на тему
 
Автор Сообщение

dusy78 ®

Стаж: 3 года 10 месяцев

Сообщений: 1005

Откуда: Россия

Пост 09-Мар-2013 13:26

[Цитировать]

Воспоминания о будущем
Ashita no kioku / Memories of Tomorrow

Год выпуска: 2006
Страна: Япония
Жанр: драма
Продолжительность: 02:02:31
Перевод: двухголосый закадровый lama, Ustas Alexis
Семпл: http://sendfile.su/775453
Режиссер: Юкихико Цуцуми / Yukihiko Tsutsumi
В ролях: Кен Ватанабе
Канако Хигучи
Кенджи Сакагучи
Кадзуэ Фукииси
Асами Мидзукава
Норитаке Кинаши
Митсухиро Оикава
Эрико Ватанабэ
Теруюки Кагава
Хидэдзи Отаки
Описание: Масаюки Саеки достиг вершин рекламного бизнеса, он счастлив в браке, а его единственная дочь вот-вот выйдет замуж. К сожалению, его настигает страшное проклятие — болезнь Альцгеймера.
Доп. информация:
Релиз: группа GREEN TEA
Субтитры предоставлены: Jmurik
Качество: DVDRip
Формат: AVI
Видео кодек: XviD
Аудио кодек: MP3
Видео 1: Xvid, 608x320, 1:1.9, 23.976 fps, 1150 Kbps
Аудио 1: RUS, mp3, 48 kHz, 192 Kbps, 2 channels Front: L R
Видео 2: Xvid, 608x320, 1:1.9, 23.976 fps, 1253 Kbps
Аудио 2: RUS, mp3, 48 kHz, 192 Kbps, 2 channels Front: L R

MediaInfo

Memories.of.Tomorrow.2006.DVDRip.Green-Tea.cd1.avi
Format : AVI
Format/Info : Audio Video Interleave
File size : 613 MiB
Duration : 1h 3mn
Overall bit rate : 1 351 Kbps
Video
ID : 0
Format : MPEG-4 Visual
Format profile : Advanced Simple@L5
Format settings, BVOP : 2
Format settings, QPel : No
Format settings, GMC : No warppoints
Format settings, Matrix : Default (H.263)
Muxing mode : Packed bitstream
Codec ID : XVID
Codec ID/Hint : XviD
Duration : 1h 3mn
Bit rate : 1 150 Kbps
Width : 608 pixels
Height : 320 pixels
Display aspect ratio : 1.900
Frame rate : 23.976 fps
Color space : YUV
Chroma subsampling : 4:2:0
Bit depth : 8 bits
Scan type : Progressive
Compression mode : Lossy
Bits/(Pixel*Frame) : 0.246
Stream size : 522 MiB (85%)
Writing library : XviD 1.0.3 (UTC 2004-12-20)
Audio
ID : 1
Format : MPEG Audio
Format version : Version 1
Format profile : Layer 3
Codec ID : 55
Codec ID/Hint : MP3
Duration : 1h 3mn
Bit rate mode : Constant
Bit rate : 192 Kbps
Channel(s) : 2 channels
Sampling rate : 48.0 KHz
Compression mode : Lossy
Stream size : 87.1 MiB (14%)
Alignment : Aligned on interleaves
Interleave, duration : 42 ms (1.00 video frame)
Writing library : LAME3.98r
Encoding settings : -m s -V 4 -q 3 -lowpass 18.6 -b 192
Memories.of.Tomorrow.2006.DVDRip.Green-Tea.cd2.avi
Format : AVI
Format/Info : Audio Video Interleave
File size : 615 MiB
Duration : 59mn 6s
Overall bit rate : 1 454 Kbps
Video
ID : 0
Format : MPEG-4 Visual
Format profile : Advanced Simple@L5
Format settings, BVOP : 2
Format settings, QPel : No
Format settings, GMC : No warppoints
Format settings, Matrix : Default (H.263)
Muxing mode : Packed bitstream
Codec ID : XVID
Codec ID/Hint : XviD
Duration : 59mn 6s
Bit rate : 1 253 Kbps
Width : 608 pixels
Height : 320 pixels
Display aspect ratio : 1.900
Frame rate : 23.976 fps
Color space : YUV
Chroma subsampling : 4:2:0
Bit depth : 8 bits
Scan type : Progressive
Compression mode : Lossy
Bits/(Pixel*Frame) : 0.269
Stream size : 530 MiB (86%)
Writing library : XviD 1.0.3 (UTC 2004-12-20)
Audio
ID : 1
Format : MPEG Audio
Format version : Version 1
Format profile : Layer 3
Codec ID : 55
Codec ID/Hint : MP3
Duration : 59mn 6s
Bit rate mode : Constant
Bit rate : 192 Kbps
Channel(s) : 2 channels
Sampling rate : 48.0 KHz
Compression mode : Lossy
Stream size : 81.2 MiB (13%)
Alignment : Aligned on interleaves
Interleave, duration : 42 ms (1.00 video frame)
Writing library : LAME3.98r
Encoding settings : -m s -V 4 -q 3 -lowpass 18.6 -b 192

Скриншоты

[Профиль] [ЛС]

InDEeC

Стаж: 2 года 2 месяца

Сообщений: 39

Откуда: Москва

Пост 01-Окт-2014 18:31 (спустя 1 год 6 месяцев)

[Цитировать]

встаньте на раздачу плз
[Профиль] [ЛС]

nolik

Стаж: 3 года 9 месяцев

Сообщений: 27

Пост 30-Окт-2014 15:59 (спустя 28 дней)

[Цитировать]

встаньте на раздачу плз
[Профиль] [ЛС]
Показать сообщения:    
Ответить на тему

Текущее время: Сегодня 02:27

Часовой пояс: GMT



Вы не можете начинать темы
Вы не можете отвечать на сообщения
Вы не можете редактировать свои сообщения
Вы не можете удалять свои сообщения
Вы не можете голосовать в опросах
Вы не можете прикреплять файлы к сообщениям
Вы не можете скачивать файлы