Жалобы на работу трекера ! прошу сюда :)

Дело ведет юный детектив Киндаичи: Дело об убийстве в Гонконге / Kindaichi shonen no jikenbo Hong Kong Kowloon zaiho satsujin jiken (Кимура Хисаши) [2013 г., детектив] 720р

Ответить на тему
 
Автор Сообщение

Амальфи ®

Стаж: 3 года 10 месяцев

Сообщений: 264

Пост 03-Мар-2014 16:52

[Цитировать]

Дело ведет юный детектив Киндаичи: Дело об убийстве в Гонконге
Kindaichi shonen no jikenbo Hong Kong Kowloon zaiho satsujin jiken
-Год выпуска: 2013
Страна: Япония
Жанр: детектив
Продолжительность: 94 мин-Перевод: Двухголосый закадровый Макс Коллапс и Анастасия Романова-Режиссер: Кимура Хисаши
В ролях: Ямада Рёске, Кавагучи Харуна, Ариока Дайки, Сын-Ри, Вивиан Сюй, Ву Чун, Киритани Кента, Эрик Тсанг, Мизута Коки и др.
Описание: Сюжет основан на популярной манге, которая началась в 1992 году как сериал в "Weekly Shonen Magazine" (Kodansha). Манга несколько раз была экранизирована и продолжает собирать огромное количество поклонников даже после того, как отметила свое 20-летие.
Корейский студент по обмену Ким Ён-Дон (Сын-Ри) учится в Гонконге и работает неполный рабочий день в отеле. В отеле совершено убийство и Ким Ён-Дон - главный подозреваемый. Но не стоит отчаиваться, Киндаичи Хадзиме (Ямада Рёске) раскроет правду.-Доп. информация:
За русские субтитры благодарим "Phoenix Cor"
Тайминг: Разифат Асланова и Юлия Айрис
Координация: Екатерина Амальфи
Работа со звуком: Ольга Гринтиева
Оформление постера: Елена Клёпкина
Неотключаемые субтитры:
частичный хардсаб (японский - в местах, где говорят по-китайски)-Качество видео: HDTVRip
Язык: Русский (закадровый)
Формат: АVI
Видео: AVC (H264), 1280x720 (16:9), 29.970 fps, 2103 Kbps
Аудио: MP3, 192 kbps, 48.0 KHz, 2 ch, stereo
Альтернативная раздача: 1024x576 (AVI, XviD)

MediaInfo

Код:
General
Format                                   : AVI
Format/Info                              : Audio Video Interleave
File size                                : 1.51 GiB
Duration                                 : 1h 33mn
Overall bit rate                         : 2 307 Kbps
Movie name                               : Юный детектив Киндаичи: Дело об убийстве в Гонконге (2013) 720p
Writing application                      : VirtualDubMod 1.5.10.2 (build 2542/release)
Writing library                          : VirtualDubMod build 2542/release
Video
ID                                       : 0
Format                                   : AVC
Format/Info                              : Advanced Video Codec
Format profile                           : High@L4.1
Format settings, CABAC                   : Yes
Format settings, ReFrames                : 5 frames
Codec ID                                 : h264
Duration                                 : 1h 33mn
Bit rate                                 : 2 103 Kbps
Width                                    : 1 280 pixels
Height                                   : 720 pixels
Display aspect ratio                     : 16:9
Frame rate                               : 29.970 fps
Color space                              : YUV
Chroma subsampling                       : 4:2:0
Bit depth                                : 8 bits
Scan type                                : Progressive
Bits/(Pixel*Frame)                       : 0.076
Stream size                              : 1.38 GiB (91%)
Writing library                          : x264 core 130 r2273 b3065e6
Encoding settings                        : cabac=1 / ref=5 / deblock=1:-1:-1 / analyse=0x3:0x133 / me=umh / subme=7 / psy=1 / psy_rd=1.00:0.10 / mixed_ref=1 / me_range=16 / chroma_me=1 / trellis=2 / 8x8dct=1 / cqm=0 / deadzone=21,11 / fast_pskip=0 / chroma_qp_offset=-3 / threads=6 / lookahead_threads=1 / sliced_threads=0 / nr=0 / decimate=1 / interlaced=0 / bluray_compat=0 / constrained_intra=0 / bframes=3 / b_pyramid=2 / b_adapt=2 / b_bias=0 / direct=3 / weightb=1 / open_gop=0 / weightp=2 / keyint=250 / keyint_min=25 / scenecut=40 / intra_refresh=0 / rc_lookahead=50 / rc=crf / mbtree=1 / crf=18.0 / qcomp=0.60 / qpmin=0 / qpmax=69 / qpstep=4 / ip_ratio=1.40 / aq=1:1.00
Audio
ID                                       : 1
Format                                   : MPEG Audio
Format version                           : Version 1
Format profile                           : Layer 3
Mode                                     : Joint stereo
Codec ID                                 : 55
Codec ID/Hint                            : MP3
Duration                                 : 1h 33mn
Bit rate mode                            : Constant
Bit rate                                 : 192 Kbps
Channel(s)                               : 2 channels
Sampling rate                            : 48.0 KHz
Compression mode                         : Lossy
Stream size                              : 129 MiB (8%)
Alignment                                : Aligned on interleaves
Interleave, duration                     : 33 ms (1.00 video frame)
Interleave, preload duration             : 504 ms

Скриншоты


[Профиль] [ЛС]

Krissstall7171

Стаж: 2 года 4 месяца

Сообщений: 4

Пост 16-Июл-2014 15:09 (спустя 4 месяца 12 дней)

[Цитировать]

Спасибо. Посмотрим....

_________________
Нет противника страшнее, чем союзник идиот
[Профиль] [ЛС]

khalilova.ira

Стаж: 2 года 4 месяца

Сообщений: 1

Пост 29-Июл-2014 09:00 (спустя 12 дней)

[Цитировать]

Там Сынри!!!! Оу надо скачать. Спасибо!!!!!
[Профиль] [ЛС]

subardinat

Стаж: 1 год 8 месяцев

Сообщений: 6

Пост 24-Авг-2015 20:09 (спустя 1 год)

[Цитировать]

давно детективов не смотрел. тем более от грин тиа
[Профиль] [ЛС]

ginzboro

Стаж: 1 год 7 месяцев

Сообщений: 48

Откуда: СССР

Пост 01-Сен-2015 18:42 (спустя 7 дней)

[Цитировать]

Фильм на редкость тупой и сюжет притянут за уши. Японцы редко снимают что-то хорошее.
[Профиль] [ЛС]
Показать сообщения:    
Ответить на тему

Текущее время: Сегодня 03:56

Часовой пояс: GMT



Вы не можете начинать темы
Вы не можете отвечать на сообщения
Вы не можете редактировать свои сообщения
Вы не можете удалять свои сообщения
Вы не можете голосовать в опросах
Вы не можете прикреплять файлы к сообщениям
Вы не можете скачивать файлы