Жалобы на работу трекера ! прошу сюда :)

Cуицидальная песня / Песня самоубийц / Densen uta (Масато Харада / Masato Harada) [2007, Япония, ужасы, DVDRip] VO GREEN TEA Sub Rus

Ответить на тему
 
Автор Сообщение

Nas ®

Стаж: 3 года 10 месяцев

Сообщений: 372

Пост 20-Янв-2013 09:44

[Цитировать]

Cуицидальная песня
Песня самоубийц / Densen uta

-
Страна: Япония
Жанр: ужасы
Год выпуска: 2007
Продолжительность: 02:08:47
Режиссер: Масато Харада / Masato Harada
-
Озвучивание: Одноголосый закадровый NHK47
Сэмпл: http://multi-up.com/635414
-
В ролях: Рюхэй Мацуда / Ryuhei Matsuda
Юсуке Исейа / Yusuke Iseya
Хироши Абе / Hiroshi Abe
Йошино Кимура / Yoshino Kimura
Юко Ошима / Yûko Ôshima
Саяка Акимото / Sayaka Akimoto
Харуна Коджима / Haruna Kojima
Атсуко Маеда / Atsuko Maeda
Описание: Андзу Нацуно, ученица старших классов школы для девочек Сэйюн, привлеченная странной мелодией заходит в одну из аудиторий школы и становится свидетельницей того, как её одноклассница Кана, напевая песню, вонзает нож себе в шею. Несколько дней спустя Андзу знакомится с Рику Нагасэи, молодым журналистом, заинтересованным самоубийством её подруги, и тот рассказывает ей городскую легенду о суицидальной песне, спев которую человек совершает самоубийство. Не имея других зацепок, его друг Тайти и несколько подружек Андзу решают спеть эту песню.
-
Дополнительная информация:
Перевод: NHK47
Cубтитры: русские
Релиз: Релиз-группа "GREEN TEA"
Рип: chopper887
-
Качество видео: DVDRip
Формат видео: AVI
Видео: 688x384 (1.79:1), 23.976 fps, XviD build 50 ~1427 kbps avg, 0.23 bit/pixel
Аудио: 48 kHz, MPEG Layer 3, 2 ch, ~192.00 kbps avg (Русский GREEN TEA)
Формат субтитров: softsub (SSA/ASS)

MediaInfo

General
Complete name : C:\GREEN TEA\Суицидальная песня (2007) DVDRip\Densen.uta.2007.DVDRip.Green-Tea.TV.avi
Format : AVI
Format/Info : Audio Video Interleave
File size : 1.47 GiB
Duration : 2h 8mn
Overall bit rate : 1 629 Kbps
Movie name : Суицидальная песня (2007) DVDRip Green-Tea.TV
Director : NHK47 (Green-Tea.TV)
Genre : Horror
Writing application : VirtualDubMod 1.5.10.3 | www.virtualdub-fr.org || (build 2550/release)
Original source form/Name : Movie
Video
ID : 0
Format : MPEG-4 Visual
Format profile : Advanced Simple@L5
Format settings, BVOP : 1
Format settings, QPel : No
Format settings, GMC : No warppoints
Format settings, Matrix : Default (MPEG)
Codec ID : XVID
Codec ID/Hint : XviD
Duration : 2h 8mn
Bit rate : 1 428 Kbps
Width : 688 pixels
Height : 384 pixels
Display aspect ratio : 16:9
Frame rate : 23.976 fps
Color space : YUV
Chroma subsampling : 4:2:0
Bit depth : 8 bits
Scan type : Progressive
Compression mode : Lossy
Bits/(Pixel*Frame) : 0.225
Stream size : 1.28 GiB (88%)
Writing library : XviD 1.2.1 (UTC 2008-12-04)
Audio
ID : 1
Format : MPEG Audio
Format version : Version 1
Format profile : Layer 3
Codec ID : 55
Codec ID/Hint : MP3
Duration : 2h 8mn
Bit rate mode : Constant
Bit rate : 192 Kbps
Channel(s) : 2 channels
Sampling rate : 48.0 KHz
Compression mode : Lossy
Stream size : 177 MiB (12%)
Alignment : Aligned on interleaves
Interleave, duration : 42 ms (1.00 video frame)
Interleave, preload duration : 504 ms
Writing library : LAME3.98r
Encoding settings : -m s -V 4 -q 2 -lowpass 18.6 -b 192

Скриншот c названием фильма

Скриншоты

[Профиль] [ЛС]
Показать сообщения:    
Ответить на тему

Текущее время: Сегодня 02:26

Часовой пояс: GMT



Вы не можете начинать темы
Вы не можете отвечать на сообщения
Вы не можете редактировать свои сообщения
Вы не можете удалять свои сообщения
Вы не можете голосовать в опросах
Вы не можете прикреплять файлы к сообщениям
Вы не можете скачивать файлы