Жалобы на работу трекера ! прошу сюда :)

Адвокат-ас / Ace Attorney (Такаси Миике / Takashi Miike) [2012, Япония, Детектив, драма, комедия, DVDRip] DVO GREEN TEA

Ответить на тему
 
Автор Сообщение

Амальфи ®

Стаж: 3 года 10 месяцев

Сообщений: 264

Пост 20-Янв-2013 13:38

[Цитировать]

Адвокат-ас / Ace Attorney
Страна: Япония
Жанр: Детектив, драма, комедия
Год выпуска: 2012
Продолжительность: 02:15:02
Перевод: двухголосый закадровый Доп. инфо о переводе Fi.Re, Ульяна Громова
Сэмпл: http://multi-up.com/762382
Cубтитры: русские (forced)
Режиссер: Такаси Миике / Takashi Miike
В ролях: Хироки Наримия
Такуми Сайто
Мирей Киритани
Акиёси Накао
Шунсуке Дайто
Акира Эмото
Рей Дан
Мицуки Танимура
Такехиро Хира
Эйске Сасай
Макото Аякава
Кимико Йо
Рё Исибаси
Фумиё Кохината
Описание: В основе фильма лежит история об адвокате-новичке Наруходо Рюичи. Сразу после того, как он выигрывает свой первый судебный процесс, на офис его наставницы, адвоката Аясато Чихиро, нападает незнакомец и убивает её. На месте преступления Рюичи встречает сестру Чихиро, медиума Аясато Майои, которую тут же обвиняют в убийстве. Рюичи соглашается помочь Майои, в результате чего в зале суда начинается сражение между ним и его другом детства, прокурором Мицуруги Рейдзи, о котором гуляет дурная слава.
Ас-адвокат (в оригинале - Gyakuten Saiban (англ. Ace Attorney)) - это серия игр, начавших выходить на платформах Nintendo, с 2001 года. Производство - Capcom. 6 частей уже вышли, и 2 в разработке. Также, с 2006 по игре начали делать мангу, на данный момент опубликовано 5 томов. В 2009 году игра была признана, как "самый интеллектуальный продукт" компании Capcom, в декабре 2011 года, общее количество проданных игр серии составило 4.2 миллиона копий.
Вся информация о игровой вселенной Ace Attorney - http://en.wikipedia.org/wiki/Ace_Attorney
----------------------
Необходимые пояснения к фильму:
1) имена персонажей в фильме соответствуют именам оригинальной версии игры, и не совпадают с американскими (в ориг. - Наруходо Рюичи, в амер. - Phoenix Wright; в ориг. - Мицуруги Рейдзи, в амер. - Miles Edgeworth, и тд)
http://en.wikipedia.org/wiki/List_of_Ace_Attorney_characters
2) В игре показан судебный процесс, без суда присяжных. Любое дело рассматривается в течение 3х дней, и судья выносит вердикт, основываясь на доводах адвоката (защита) подсудимого и прокурора (обвинение). Они должны использовать улики, и показания свидетелей обоих сторон для убеждения судьи в своей правоте.
3) 1:01:05 - название озера происходит от слова "тыква". Наруходо вытаскивает из воды фляги, сделанные из тыквы.
4) 1:13:57 - имя друга (и одного из свидетелей) Наруходо - Яхари. По-японски это означает "как я и думал..."
5) 1:27:00 - Тайхо-кун (кукла со значком шерифа) - символ полиции, в игровом сериале Ас-адвокат.
----------------------
Fi.Re.
Доп. информация:
Релиз подготовлен группой GREEN TEA
Перевод: elserjo2
Тайминг сабов: Kelly, Glen и elserjo
Работа над звуком: Fi.Re
Рип: WithPa
Оформление постера: Dusy
Качество видео: DVDRip
Формат видео: AVI
Видео: XviD, 720х304, 2,35:1, 23,976 кадра/сек, 1135 Кбит/сек
Аудио: MP3, 48,0 КГц, 192 Кбит/сек, 2 канала
Формат субтитров: softsub (SSA/ASS)

MediaInfo

Общее
Полное имя : F:\Видео\Ace Attorney 2012_DVO_GREEN TEA\Ace Attorney 2012_DVO_GREEN TEA.avi
Формат : AVI
Формат/Информация : Audio Video Interleave
Размер файла : 1,26 Гбайт
Продолжительность : 2 ч. 15 м.
Общий поток : 1336 Кбит/сек
Программа кодирования : VirtualDubMod 1.5.10.2 (build 2540/release)
Библиотека кодирования : VirtualDubMod build 2540/release
Видео
Идентификатор : 0
Формат : MPEG-4 Visual
Профиль формата : Advanced Simple@L5
Параметр BVOP формата : 2
Параметр QPel формата : Нет
Параметр GMC формата : Без точки перехода
Параметр матрицы формата : Default (MPEG)
Режим смешивания : Сжатый битовый поток
Идентификатор кодека : XVID
Идентификатор кодека/Подсказка : XviD
Продолжительность : 2 ч. 15 м.
Битрейт : 1135 Кбит/сек
Ширина : 720 пикселей
Высота : 304 пикселя
Соотношение сторон : 2,35:1
Частота кадров : 23,976 кадра/сек
Цветовое пространство : YUV
Субдискретизация насыщенности : 4:2:0
Битовая глубина : 8 бит
Тип развёртки : Прогрессивная
Метод сжатия : С потерями
Бит/(Пиксели*Кадры) : 0.216
Размер потока : 1,07 Гбайт (85%)
Библиотека кодирования : XviD 64
Аудио
Идентификатор : 1
Формат : MPEG Audio
Версия формата : Version 1
Профиль формата : Layer 3
Режим : Joint stereo
Расширение режима : MS Stereo
Идентификатор кодека : 55
Идентификатор кодека/Подсказка : MP3
Продолжительность : 2 ч. 15 м.
Вид битрейта : Постоянный
Битрейт : 192 Кбит/сек
Каналы : 2 канала
Частота : 48,0 КГц
Метод сжатия : С потерями
Размер потока : 185 Мбайт (14%)
Выравнивание : Соединение по промежуткам
Продолжительность промежутка : 42 мс. (1,00 видеокадр)
Время предзагрузки промежутка : 504 мс.
Библиотека кодирования : LAME3.98r
Настройки программы : -m j -V 4 -q 0 -lowpass 18.6 -b 192

Скриншот c названием фильма

Скриншоты






[Профиль] [ЛС]

Katherine

Стаж: 3 года 10 месяцев

Сообщений: 48

Пост 23-Янв-2013 16:32 (спустя 3 дня)

[Цитировать]

Скачаем, посмотрим)

_________________
[Профиль] [ЛС]

lenivaya10001

Стаж: 3 года 10 месяцев

Сообщений: 16

Пост 18-Фев-2013 03:29 (спустя 25 дней)

[Цитировать]

надо было по-другому назвать... Адвокатас, ...Рамирес...что нибудь такое:)... не буду смотреть эту фантазию о важности самого грязного и паразитического занятия на планете... даже гельменты и работники банков зависят от наличия мрази и падонков меньше, чем юристы :)))

_________________
верхняя это обиженная нижняя у которой нет хозяина
[Профиль] [ЛС]

ZaG

Стаж: 11 месяцев 26 дней

Сообщений: 2

Пост 21-Дек-2015 19:12 (спустя 2 года 10 месяцев)

[Цитировать]

скачать не могу
[Профиль] [ЛС]
Показать сообщения:    
Ответить на тему

Текущее время: Сегодня 05:43

Часовой пояс: GMT



Вы не можете начинать темы
Вы не можете отвечать на сообщения
Вы не можете редактировать свои сообщения
Вы не можете удалять свои сообщения
Вы не можете голосовать в опросах
Вы не можете прикреплять файлы к сообщениям
Вы не можете скачивать файлы