Жалобы на работу трекера ! прошу сюда :)

Секрет Акко-тян/ Himitsu no Akko-chan / Akko-chan's Secret [RUS(int) + JPN] [2012, Япония, Романтика, Комедия, Фэнтези, на основе манги, DVDRip] DVO GREEN TEA

Ответить на тему
 
Автор Сообщение

Амальфи ®

Стаж: 3 года 10 месяцев

Сообщений: 264

Пост 18-Окт-2014 21:59

[Цитировать]

Секрет Акко-тян
Himitsu no Akko-chan / Akko-chan's Secret
Страна: Япония
Жанр: Романтика, Комедия, Фэнтези, на основе манги
Год выпуска: 2012
Продолжительность: 02:00:09
Озвучка: Двухголосая (закадровая) Елена Егорова и Валерий Феодосов
Сэмпл:
В ролях:
Харука Аясе – Ацуко Кагами
Масаки Окада – Наото Хаясе
Описание:
Многое по плечу непоседливой девице десяти лет от роду. Стать фигуристкой? Пожалуйста. Превратиться в кошку? Запросто. Трансформироваться в дядьку со смешной причёской? Раз плюнуть! Скажете, это невозможно? Возможно, если у вас есть некий магический предмет… Школьница Акко Кагами и не подозревала, что её ждёт после необдуманного поступка, ведь недаром говорят: будьте осторожны в своих желаниях, вдруг они исполнятся? © Li_Li
Доп. информация:
Перевод: фансаб-группа SeouLights
Релиз: группа "GREEN TEA"
Качество видео: DVDRip
Формат видео: AVI
Видео: XviD, 1280х720, 16/9, 23.976 fps, 2 197 Kbps
Аудио: МР3, 48 КГц, 192 Кбит/сек, 2 канала

MediaInfo

Format : AVI
Format/Info : Audio Video Interleave
Format profile : OpenDML
File size : 2.02 GiB
Duration : 2h 0mn
Overall bit rate : 2 401 Kbps
Writing application : VirtualDubMod 1.5.10.2 (build 2540/release)
Writing library : VirtualDubMod build 2540/release
Video
ID : 0
Format : xvid
Codec ID : xvid
Duration : 2h 0mn
Bit rate : 2 197 Kbps
Width : 1 280 pixels
Height : 720 pixels
Display aspect ratio : 16:9
Frame rate : 23.976 fps
Bits/(Pixel*Frame) : 0.099
Stream size : 1.85 GiB (91%)
Audio
ID : 1
Format : MPEG Audio
Format version : Version 1
Format profile : Layer 3
Codec ID : 55
Codec ID/Hint : MP3
Duration : 2h 0mn
Bit rate mode : Constant
Bit rate : 192 Kbps
Channel count : 2 channels
Sampling rate : 48.0 KHz
Compression mode : Lossy
Stream size : 165 MiB (8%)
Alignment : Aligned on interleaves
Interleave, duration : 42 ms (1.00 video frame)
Interleave, preload duration : 504 ms

Скриншоты




[Профиль] [ЛС]
Показать сообщения:    
Ответить на тему

Текущее время: Сегодня 16:00

Часовой пояс: GMT



Вы не можете начинать темы
Вы не можете отвечать на сообщения
Вы не можете редактировать свои сообщения
Вы не можете удалять свои сообщения
Вы не можете голосовать в опросах
Вы не можете прикреплять файлы к сообщениям
Вы не можете скачивать файлы