Жалобы на работу трекера ! прошу сюда :)

Человек-зебра 2: Атака на Зебра-Сити / Zebraman 2: Zebura-Shichi no gyakushu / Zebraman 2: Attack on Zebra-City (Такаси Миике / Takashi Miike) [2010, Япония, Фантастика, комедия, токусацу, BDRip] MVO GREEN TEA

Ответить на тему
 
Автор Сообщение

Амальфи ®

Стаж: 3 года 10 месяцев

Сообщений: 264

Пост 21-Янв-2013 09:34

[Цитировать]

Человек-зебра 2: Атака на Зебра-Сити / Zebraman 2: Zebura-Shichi no gyakushu / Zebraman 2: Attack on Zebra-City Страна: Япония
Жанр: Фантастика, комедия, токусацу
Год выпуска: 2010
Продолжительность: 01:47:06
Режиссер: Такаси Миике / Takashi Miike
Перевод: Многоголосый закадровый Fi.Re, ustas-alexis, Ульяна Громова
СЭМПЛ http://multi-up.com/754095
b]В ролях: Сё Айкава
Рииса Нака
Цуёси Абэ
Масахиро Иноуэ
Описание:
2025 год. Итикава просыпается на улице и не может поверить своим глазам: звучит странный сигнал, прохожие прячутся кто куда, а по городу ходят отряды людей в чёрной форме, расстреливающие всех на своём пути. Это Зебра-Сити - город будущего, в котором царят жестокие законы. Только супергерой сможет навести здесь порядок и спасти невинных. Но вот беда: наш Человек-зебра совершенно потерял память и не помнит даже, как его зовут. А слово "Зебрамэн" кажется для него пустым звуком.
Доп. информация:
Релиз подготовлен группой GREEN TEA
Перевод KaijuKeizer Team
Редакция субтитров: Fi.Re и ustas-alexis
Работа со звуком: Fi.Re
Рип: WithPa
Качество видео: BDRip
Формат видео: AVI
Видео: XviD, 720х400, 16:9, 23,976 кадра/сек, 1470 Кбит/сек
Аудио: MP3, 48,0 КГц, 192 Кбит/сек, 2 канала

MediaInfo

Общее
Полное имя : F:\Видео\Zebraman 2_Attack on Zebra_City_MVO_GREEN TEA.avi
Формат : AVI
Формат/Информация : Audio Video Interleave
Размер файла : 1,25 Гбайт
Продолжительность : 1 ч. 47 м.
Общий поток : 1672 Кбит/сек
Программа кодирования : VirtualDubMod 1.5.10.2 (build 2540/release)
Библиотека кодирования : VirtualDubMod build 2540/release
Видео
Идентификатор : 0
Формат : MPEG-4 Visual
Профиль формата : Advanced Simple@L5
Параметр BVOP формата : 2
Параметр QPel формата : Нет
Параметр GMC формата : Без точки перехода
Параметр матрицы формата : Default (MPEG)
Режим смешивания : Сжатый битовый поток
Идентификатор кодека : XVID
Идентификатор кодека/Подсказка : XviD
Продолжительность : 1 ч. 47 м.
Битрейт : 1470 Кбит/сек
Ширина : 720 пикселей
Высота : 400 пикселей
Соотношение сторон : 16:9
Частота кадров : 23,976 кадра/сек
Цветовое пространство : YUV
Субдискретизация насыщенности : 4:2:0
Битовая глубина : 8 бит
Тип развёртки : Прогрессивная
Метод сжатия : С потерями
Бит/(Пиксели*Кадры) : 0.213
Размер потока : 1,10 Гбайт (88%)
Библиотека кодирования : XviD 64
Аудио
Идентификатор : 1
Формат : MPEG Audio
Версия формата : Version 1
Профиль формата : Layer 3
Режим : Joint stereo
Расширение режима : MS Stereo
Идентификатор кодека : 55
Идентификатор кодека/Подсказка : MP3
Продолжительность : 1 ч. 47 м.
Вид битрейта : Постоянный
Битрейт : 192 Кбит/сек
Каналы : 2 канала
Частота : 48,0 КГц
Метод сжатия : С потерями
Задержка видео : 912 мс.
Размер потока : 147 Мбайт (11%)
Выравнивание : Разделение по промежуткам
Продолжительность промежутка : 42 мс. (1,00 видеокадр)
Время предзагрузки промежутка : 504 мс.
Библиотека кодирования : LAME3.98r
Настройки программы : -m j -V 4 -q 0 -lowpass 18.6 -b 192

Скриншот с названием фильма

Скринщоты

[Профиль] [ЛС]

jemeljanov

Стаж: 3 года 10 месяцев

Сообщений: 5

Пост 23-Янв-2013 19:17 (спустя 2 дня 9 часов)

[Цитировать]

глянуть бы первую часть для начала... ))) спс
[Профиль] [ЛС]

lenivaya10001

Стаж: 3 года 10 месяцев

Сообщений: 16

Пост 18-Фев-2013 03:34 (спустя 25 дней)

[Цитировать]

лежачий полицейский 2 ... смотрите на дорогах города :))) .... даешь первую часть!!!?

_________________
верхняя это обиженная нижняя у которой нет хозяина
[Профиль] [ЛС]

lenivaya10001

Стаж: 3 года 10 месяцев

Сообщений: 16

Пост 18-Фев-2013 03:35 (спустя 1 минута)

[Цитировать]

jemeljanov, и я о том же... и сэмпл отвалился

_________________
верхняя это обиженная нижняя у которой нет хозяина
[Профиль] [ЛС]

Alibaba

Стаж: 3 года 2 месяца

Сообщений: 22

Пост 15-Дек-2013 18:33 (спустя 9 месяцев 25 дней)

[Цитировать]

Скринщоты класс!!! Буду качать! :)...
[Профиль] [ЛС]

Alibaba

Стаж: 3 года 2 месяца

Сообщений: 22

Пост 19-Дек-2013 17:51 (спустя 3 дня)

[Цитировать]

А Вы в курсе, что сейчас ЗебраМэн выносит мешки с мусором?
[Профиль] [ЛС]
Показать сообщения:    
Ответить на тему

Текущее время: Сегодня 16:01

Часовой пояс: GMT



Вы не можете начинать темы
Вы не можете отвечать на сообщения
Вы не можете редактировать свои сообщения
Вы не можете удалять свои сообщения
Вы не можете голосовать в опросах
Вы не можете прикреплять файлы к сообщениям
Вы не можете скачивать файлы