Жалобы на работу трекера ! прошу сюда :)

Ради любви / Ai to Makoto / For Love's Sake (Takashi Miike) [2012, мюзикл, экшн, мелодрама, HDRip] [RAW] [304p] VO GREEN TEA

Ответить на тему
 
Автор Сообщение

Klёпa ®

Стаж: 3 года 2 месяца

Сообщений: 906

Пост 26-Окт-2014 04:13

[Цитировать]

Ради любви
Ai to Makoto / For Love's Sake

Год выпуска: 2012
Страна: Япония
Жанр: мюзикл, экшн, мелодрама
Продолжительность: 02:13:49-Перевод одноголосый (закадровый) Екатерина Юрьева
Сэмпл: https://yadi.sk/-
Режиссер: Такаши Миике (Takashi Miike)
В ролях:
Цумабуки Сатоши
Такеи Эми
Сайто Такуми
Оно Ито
Андо Сакура
Цуеши Ихара
Кимико Ё
Ё Хитото
Масатика Итимура
Като Сейширо
и др.
Описание:
Макото - трудный подросток с преступными наклонностями. Аи - примерная девочка из порядочной семьи. Однажды при случайной встрече Аи по шраму на лбу узнает в Макото мальчика, которому в детстве случайно нанесла травму, катаясь на лыжах. В этом шраме Аи теперь видит причину криминальных наклонностей Макото. Чувствуя ответственность, Аи проникается идеей вновь наставить его на истинный путь. В тайне от всех она организует перевод мальчика в свою школу Аобадай.
Но ее усилия напрасны: после очередной стычки с полицией Макото исключают из престижной школы. Он попадает в школу Ханазоно, известную как заведение для трудных подростков, где кулаками быстро достигает авторитета и заводит дружбу с «королевой» Ханазоно Юки. Аи не опускает рук и, несмотря на возражения родителей, тоже переходит в эту школу. С появлением Аи Юки понимает, что влюблена в Макото, однако ее чувства не взаимны. Тогда от разочарования Юки объявляет войну Макото и берет Аи в заложницы. Сможет ли Макото победить в этой схватке и спасти жизнь Аи?
Доп. информация:
Релиз подготовлен группой "GREEN TEA"
Перевод: фансаб-группа "BiG BOSS"
Работа со звуком: Екатерина Юрьева
Оформление постера: Елена Горборукова
Качество: HDRip
Формат: AVI
Видео кодек: XviD
Аудио кодек: MP3
Видео: 720x304 (2.35:1), 1360 Кбит/с, 23.976 fps
Аудио: 44.1 kHz, 192 Кбит/c, 2 канала
!!! Альтернативные раздачи: 720p (MKV, HDRip) || 480p (AVI, DVDRip)

MediaInfo

Код:
General
Format                                   : AVI
Format/Info                              : Audio Video Interleave
File size                                : 1.46 GiB
Duration                                 : 2h 13mn
Overall bit rate                         : 1 561 Kbps
Writing application                      : VirtualDubMod 1.5.10.3 || (build 2550/release)
Writing library                          : VirtualDubMod build 2550/release
Video
ID                                       : 0
Format                                   : MPEG-4 Visual
Format profile                           : Advanced Simple@L5
Format settings, BVOP                    : 2
Format settings, QPel                    : No
Format settings, GMC                     : No warppoints
Format settings, Matrix                  : Default (MPEG)
Codec ID                                 : XVID
Codec ID/Hint                            : XviD
Duration                                 : 2h 13mn
Bit rate                                 : 1 360 Kbps
Width                                    : 720 pixels
Height                                   : 304 pixels
Display aspect ratio                     : 2.35:1
Frame rate                               : 23.976 fps
Color space                              : YUV
Chroma subsampling                       : 4:2:0
Bit depth                                : 8 bits
Scan type                                : Progressive
Compression mode                         : Lossy
Bits/(Pixel*Frame)                       : 0.259
Stream size                              : 1.27 GiB (87%)
Writing library                          : XviD 1.2.1 (UTC 2008-12-04)
Audio
ID                                       : 2
Format                                   : MPEG Audio
Format version                           : Version 1
Format profile                           : Layer 3
Mode                                     : Joint stereo
Codec ID                                 : 55
Codec ID/Hint                            : MP3
Duration                                 : 2h 13mn
Bit rate mode                            : Constant
Bit rate                                 : 192 Kbps
Channel(s)                               : 2 channels
Sampling rate                            : 44.1 KHz
Compression mode                         : Lossy
Stream size                              : 184 MiB (9%)
Alignment                                : Split accross interleaves
Interleave, duration                     : 42 ms (1.00 video frame)
Interleave, preload duration             : 500 ms

Скриншоты


[Профиль] [ЛС]

берёза

Стаж: 2 года 7 месяцев

Сообщений: 7

Пост 18-Дек-2014 16:51 (спустя 1 месяц 23 дня)

[Цитировать]

Бредятина конечно,но такая няяяяяяяя. ap

_________________
Кто,кто?Берёза я!!!
[Профиль] [ЛС]
Показать сообщения:    
Ответить на тему

Текущее время: Сегодня 22:09

Часовой пояс: GMT



Вы не можете начинать темы
Вы не можете отвечать на сообщения
Вы не можете редактировать свои сообщения
Вы не можете удалять свои сообщения
Вы не можете голосовать в опросах
Вы не можете прикреплять файлы к сообщениям
Вы не можете скачивать файлы