Жалобы на работу трекера ! прошу сюда :)

Соседи по комнате / L-DK (Кавамура Ясухиро / Kawamura Yasuhiro) [2014 г., романтика, комедия, мелодрама, HDTVRip]

Ответить на тему
 
Автор Сообщение

Valerius Kafa ®

Стаж: 3 года 1 месяц

Сообщений: 79

Пост 17-Ноя-2014 14:47

[Цитировать]

Соседи по комнате / L-DK
Год выпуска: 2014
Страна: Япония
Жанр: романтика, комедия, мелодрама
Продолжительность: 1.52.52-Перевод: Двухголосый (закадровый) Людмила Линькова и Валерий Феодосов-Режиссер: Кавамура Ясухиро / Kawamura Yasuhiro
В ролях: Gouriki Ayame / Горики Аямэ - Nishimori Aoi / Нишимори Аой
Yamazaki Kento / Ямазаки Кенто - Kugayama Shuusei / Кугаяма Шусей
Nakao Akiyoshi / Накао Акиёши - Sato Ryosuke / Сато Рёске
Okamoto Rei / Окамото Рей - Shibuya Moe / Шибуя Моэ
Kiriyama Ren / Кирияма Рен - Sanjo Wataru / Санджо Ватару
Ishibashi Anna / Ишибаши Анна - Mizuno Satsuki / Мизуно Сацки
Fukushi Seiji / Фукуши Сейджи - Kugayama Soju / Кугаяма Соджу
Shiraishi Miho / Ширайши Михо - Hoshino Kazumi / Хошино Казуми
Описание: Он - школьный принц, но ни одной девушке не удалось окрутить его. Она - обычная немного наивная старшеклассница, ещё никогда не встречавшая с парнями.
По воле случая им двоим приходится жить вместе в небольшой съёмной однокомнатной квартирке, так называемой L-DK. Что ожидает их, если она всем сердцем ненавидит его, а он любит постоянно над ней подшучивать и смущать её? И так ли всё ужасно на самом деле? Или же им удастся прожить множество чудесных моментов вместе?
Фильм снят по манге Ватанабе Аю "L-DK"-Релиз группы GREEN TEA
Перевод: фансаб-группа Yuli4ka_Daisuke
Оформление постера: Дина Фаткуллина
Работа со звуком: Людмила Линькова-Доп. информация:
Качество: HDTVRip
Формат: MKV
Видео кодек: Другой MPEG4
Аудио кодек: MP3
Видео: 1280x690, ~6500 Kbps, 23,976 fps
Аудио: 192 Kbps, 48 kHz, 2 ch
Альтернативная раздача 720x384

MediaInfo

Format : Matrosk
File size : 5.29 GiB
Duration : 1h 53mn
Overall bit rate : 6 688 Kbps
Encoded date : UTC 2014-11-16 19:02:17
Writing application : mkvmerge v5.7.0 ('The Whirlwind') built on Jul 8 2012 20:08:51
Writing library : libebml v1.2.3 + libmatroska v1.3.0
DURATION : 01:53:19.459000000
NUMBER_OF_FRAMES : 163024
NUMBER_OF_BYTES : 5519808676
_STATISTICS_WRITING_APP : mkvmerge v7.2.0 ('On Every Street') 64bit built on Sep 13 2014 15:52:10
_STATISTICS_WRITING_DATE_UTC : 2014-11-06 20:21:14
_STATISTICS_TAGS : BPS DURATION NUMBER_OF_FRAMES NUMBER_OF_BYTES
Video #1
ID : 1
Format : AVC
Format/Info : Advanced Video Codec
Format profile : High@L4.1
Format settings, CABAC : Yes
Format settings, ReFrames : 9 frames
Muxing mode : Header stripping
Codec ID : V_MPEG4/ISO/AVC
Duration : 1h 53mn
Bit rate mode : Variable
Bit rate : 6 500 Kbps
Maximum bit rate : 40.0 Mbps
Width : 1 280 pixels
Height : 690 pixels
Display aspect ratio : 1.855
Frame rate : 23.976 fps
Color space : YUV
Chroma subsampling : 4:2:0
Bit depth : 8 bits
Scan type : Progressive
Bits/(Pixel*Frame) : 0.307
Stream size : 5.04 GiB (95%)
Writing library : x264 core 130 r2273 b3065e6
Encoding settings : cabac=1 / ref=9 / deblock=1:-1:-1 / analyse=0x3:0x133 / me=umh / subme=10 / psy=1 / psy_rd=1.00:0.00 / mixed_ref=1 / me_range=24 / chroma_me=1 / trellis=2 / 8x8dct=1 / cqm=0 / deadzone=21,11 / fast_pskip=0 / chroma_qp_offset=-2 / threads=6 / lookahead_threads=1 / sliced_threads=0 / nr=0 / decimate=1 / interlaced=0 / bluray_compat=0 / constrained_intra=0 / bframes=5 / b_pyramid=2 / b_adapt=2 / b_bias=0 / direct=1 / weightb=1 / open_gop=0 / weightp=2 / keyint=250 / keyint_min=23 / scenecut=40 / intra_refresh=0 / rc_lookahead=60 / rc=abr / mbtree=1 / bitrate=6500 / ratetol=1.0 / qcomp=0.60 / qpmin=10 / qpmax=51 / qpstep=4 / ip_ratio=1.40 / aq=1:1.0
Language : Japanese
Matrix coefficients : BT.709-5, BT.1361, IEC 61966-2-4 709, SMPTE RP177
Audio #2
ID : 2
Format : MPEG Audio
Format version : Version 1
Format profile : Layer 3
Mode : Joint stereo
Muxing mode : Header stripping
Codec ID : A_MPEG/L3
Codec ID/Hint : MP3
Duration : 1h 53mn
Bit rate mode : Constant
Bit rate : 192 Kbps
Channel(s) : 2 channels
Sampling rate : 48.0 KHz
Compression mode : Lossy
Stream size : 156 MiB (3%)
[/code]

Скриншоты


_________________
Подпись отключена за нарушение правил форума
[Профиль] [ЛС]

ОльгаС

Стаж: 2 года 7 месяцев

Сообщений: 43

Пост 22-Ноя-2014 16:47 (спустя 5 дней)

[Цитировать]

В первой половине фильм выглядел наивным и детским, во второй - унылым и банальным, ну совсем у сценаристов фантазия конки откинула. И что обидно то, хорошие голоса озвучивают такую шнягу.
И впервые у меня на приличном разрешении по всему экрану цветные фигуры и полосы. Никак не пойму, что не так с моим проигрывателем? Люди, помогите чайнику!
[Профиль] [ЛС]

Klёпa

Стаж: 3 года 2 месяца

Сообщений: 906

Пост 22-Ноя-2014 17:03 (спустя 15 минут)

[Цитировать]

Никак не пойму, что не так с моим проигрывателем? Люди, помогите чайнику!
Обновите кодеки до последней версии или установите проигрыватель со встроенными кодеками (последней версии)))
[Профиль] [ЛС]

Sant

Стаж: 1 год 10 месяцев

Сообщений: 8

Пост 10-Янв-2015 13:11 (спустя 1 месяц 17 дней)

[Цитировать]

ОльгаС, фильм снят по манге.
[Профиль] [ЛС]

Akuma

Стаж: 1 год 5 месяцев

Сообщений: 1

Пост 21-Июн-2015 21:30 (спустя 5 месяцев 11 дней)

[Цитировать]

私の好きえがです
[Профиль] [ЛС]
Показать сообщения:    
Ответить на тему

Текущее время: Сегодня 22:20

Часовой пояс: GMT



Вы не можете начинать темы
Вы не можете отвечать на сообщения
Вы не можете редактировать свои сообщения
Вы не можете удалять свои сообщения
Вы не можете голосовать в опросах
Вы не можете прикреплять файлы к сообщениям
Вы не можете скачивать файлы