Жалобы на работу трекера ! прошу сюда :)

Соседи по комнате / L-DK (Кавамура Ясухиро / Kawamura Yasuhiro) [2014 г., романтика, комедия, мелодрама, HDTVRip 400p]

Ответить на тему
 
Автор Сообщение

Valerius Kafa ®

Стаж: 3 года 2 месяца

Сообщений: 79

Пост 17-Ноя-2014 15:40

[Цитировать]

Соседи по комнате / L-DK
Год выпуска: 2014
Страна: Япония
Жанр: романтика, комедия, мелодрама
Продолжительность: 1.52.52-Перевод: Двухголосый (закадровый) Людмила Линькова и Валерий Феодосов-Режиссер: Кавамура Ясухиро / Kawamura Yasuhiro
В ролях: Gouriki Ayame / Горики Аямэ - Nishimori Aoi / Нишимори Аой
Yamazaki Kento / Ямазаки Кенто - Kugayama Shuusei / Кугаяма Шусей
Nakao Akiyoshi / Накао Акиёши - Sato Ryosuke / Сато Рёске
Okamoto Rei / Окамото Рей - Shibuya Moe / Шибуя Моэ
Kiriyama Ren / Кирияма Рен - Sanjo Wataru / Санджо Ватару
Ishibashi Anna / Ишибаши Анна - Mizuno Satsuki / Мизуно Сацки
Fukushi Seiji / Фукуши Сейджи - Kugayama Soju / Кугаяма Соджу
Shiraishi Miho / Ширайши Михо - Hoshino Kazumi / Хошино Казуми
Описание: Он - школьный принц, но ни одной девушке не удалось окрутить его. Она - обычная немного наивная старшеклассница, ещё никогда не встречавшая с парнями.
По воле случая им двоим приходится жить вместе в небольшой съёмной однокомнатной квартирке, так называемой L-DK. Что ожидает их, если она всем сердцем ненавидит его, а он любит постоянно над ней подшучивать и смущать её? И так ли всё ужасно на самом деле? Или же им удастся прожить множество чудесных моментов вместе?
Фильм снят по манге Ватанабе Аю "L-DK"-Релиз группы GREEN TEA
Перевод: фансаб-группа Yuli4ka_Daisuke
Оформление постера: Дина Фаткуллина
Работа со звуком: Людмила Линькова-Доп. информация:
Качество: HDTVRip
Формат: AVI
Видео кодек: XVID
Аудио кодек: MP3
Видео: 720x384, ~1636 Kbps, 23.976 fps
Аудио: 192 Kbps, 48 kHz, 2 ch
Альтернативная раздача 1280x690

MediaInfo

H:\Раздачи\[GREEN TEA] Соседи по комнате.avi
General
Complete name : H:\Раздачи\[GREEN TEA] Соседи по комнате.avi
Format : AVI
Format/Info : Audio Video Interleave
File size : 1.45 GiB
Duration : 1h 53mn
Overall bit rate : 1 837 Kbps
Writing library : VirtualDub build 35486/release
Video #0
ID : 0
Format : MPEG-4 Visual
Format profile : Advanced Simple@L5
Format settings, BVOP : 4
Format settings, QPel : No
Format settings, GMC : No warppoints
Format settings, Matrix : Custom
Codec ID : XVID
Codec ID/Hint : XviD
Duration : 1h 53mn
Bit rate : 1 636 Kbps
Width : 720 pixels
Height : 384 pixels
Display aspect ratio : 1.875
Frame rate : 23.976 fps
Color space : YUV
Chroma subsampling : 4:2:0
Bit depth : 8 bits
Scan type : Progressive
Compression mode : Lossy
Bits/(Pixel*Frame) : 0.247
Stream size : 1.29 GiB (89%)
Writing library : XviD 1.2.1 (UTC 2008-12-04)
Audio #1
ID : 1
Format : MPEG Audio
Format version : Version 1
Format profile : Layer 3
Mode : Joint stereo
Codec ID : 55
Codec ID/Hint : MP3
Duration : 1h 53mn
Bit rate mode : Constant
Bit rate : 192 Kbps
Channel(s) : 2 channels
Sampling rate : 48.0 KHz
Compression mode : Lossy
Stream size : 156 MiB (10%)
Alignment : Split accross interleaves
Interleave, duration : 42 ms (1.00 video frame)
Interleave, preload duration : 500 ms
[/code]

Скриншоты


_________________
Подпись отключена за нарушение правил форума
[Профиль] [ЛС]

Alibaba

Стаж: 3 года 1 месяц

Сообщений: 22

Пост 21-Ноя-2014 17:12 (спустя 4 дня)

[Цитировать]

Какой зачетный первый скринщёт!! И последний тоже! Первый - на рабочий стол начальнику. Второй - мне. Без розовых соплей в этой жизни никак)))
[Профиль] [ЛС]

AlexStarRu

Стаж: 3 года 9 месяцев

Сообщений: 148

Пост 04-Мар-2015 15:20 (спустя 3 месяца 12 дней)

[Цитировать]

Скриншоты исчезли...
[Профиль] [ЛС]

Tainted-love

Стаж: 2 года 11 месяцев

Сообщений: 1180

Пост 05-Мар-2015 20:49 (спустя 1 день 5 часов)

[Цитировать]

И правда исчезли... А куда... кто знает?
[Профиль] [ЛС]

DeathLana

Стаж: 1 год 7 месяцев

Сообщений: 9

Пост 11-Июн-2015 20:40 (спустя 3 месяца 5 дней)

[Цитировать]

Дайте скорость
[Профиль] [ЛС]

Veralena

Стаж: 1 год 2 месяца

Сообщений: 2

Пост 16-Сен-2015 07:31 (спустя 3 месяца 4 дня)

[Цитировать]

Большое вам спасибо за проделанную вами работу,вы отлично постарались,спасибо,что радуете всех поклонников дорам и фильмов про любовь.
[Профиль] [ЛС]
Показать сообщения:    
Ответить на тему

Текущее время: Сегодня 18:39

Часовой пояс: GMT



Вы не можете начинать темы
Вы не можете отвечать на сообщения
Вы не можете редактировать свои сообщения
Вы не можете удалять свои сообщения
Вы не можете голосовать в опросах
Вы не можете прикреплять файлы к сообщениям
Вы не можете скачивать файлы