Жалобы на работу трекера ! прошу сюда :)

Парад / Parade / Paredo / パレード (Исао Юкисада / Isao Yukisada) [2009 г., Драма, BDRip]

Ответить на тему
 
Автор Сообщение

Valerius Kafa ®

Стаж: 3 года 1 месяц

Сообщений: 79

Пост 13-Дек-2014 08:38

[Цитировать]

Парад / Parade / Paredo / パレード
Год выпуска: 2009
Страна: Япония
Жанр: Драма 16+
Продолжительность: 01:58:21-Перевод: Одноголосый (закадровый) Валерий Феодосов-Режиссер: Исао Юкисада / Isao Yukisada
В ролях: Тацуя Фудзивара (Наоки)
Карина (Мирай)
Сихори Кандзия (Котоми)
Кэйсукэ Койдэ (Рёсукэ)
Кэнто Хаяси (Сатору)
Тэруносукэ Такэдзай (Маруяма)
Юри Накамура (Кивако)
Махо Нонами (Рё Экура)
Рэндзи Исибаси (Ёсио Ногути)
Бокудзо Масана
Мидорико Кимура
Мисаки Момосэ-Описание: В одном из районов Токио в маленькой квартире формата 2LDK (2 спальни + гостиная/столовая/кухня «в одном флаконе») живут две девушки (Мирай и Котоми) и два молодых человека (Наоки и Рёсукэ). В «добровольной коммуналке» они умудряются уживаться и не конфликтовать друг с другом, при этом между девушками и молодыми людьми никакой любви и прочей романтики не наблюдается — у каждого из них есть своя «половинка» или кандидат в оные где-то в другом месте. А тут они просто живут. Их сосуществование можно назвать «подобием дружбы», как в чате или на компьютерном форуме, где каждый носит свою маску, и никто не знает истинной сущности тех, с кем постоянно общается.
Неожиданное появление пятого человека в их обществе — Сатору — не разрушает их привычного существования, но позволяет им немного по-другому взглянуть и на самих себя, и на свои взаимоотношения. Оказывается, у каждого из них есть и слабости, и темные стороны их натуры.-Доп. информация:
Перевод: syberneko, Pelikan
Релиз группы GREEN TEA
Оформление постера: Елена Горбункова-Качество: BDRip
Формат: AVI
Видео кодек: H.26x
Аудио кодек: MP3
Видео: 1280х720
Аудио: 192 Kbps, 48 kHz, 2 ch

MediaInfo

Код:
General
      Format : AVI
      Format/Info : Audio Video Interleave
      File size : 1.98 GiB
      Duration : 1h 58mn
      Overall bit rate : 2 386 Kbps
      Writing library : VirtualDub build 35486/release
   Video #0
      ID : 0
      Format : AVC
      Format/Info : Advanced Video Codec
      Format profile : High@L4.1
      Format settings, CABAC : Yes
      Format settings, ReFrames : 9 frames
      Codec ID : H264
      Duration : 1h 58mn
      Bit rate : 2 185 Kbps
      Nominal bit rate : 2 520 Kbps
      Width : 1 280 pixels
      Height : 720 pixels
      Display aspect ratio : 16:9
      Frame rate : 23.976 fps
      Color space : YUV
      Chroma subsampling : 4:2:0
      Bit depth : 8 bits
      Scan type : Progressive
      Bits/(Pixel*Frame) : 0.099
      Stream size : 1.81 GiB (92%)
      Writing library : x264 core 130 r2273 b3065e6
      Encoding settings : cabac=1 / ref=9 / deblock=1:-1:-1 / analyse=0x3:0x133 / me=umh / subme=10 / psy=1 / psy_rd=1.00:0.00 / mixed_ref=1 / me_range=24 / chroma_me=1 / trellis=2 / 8x8dct=1 / cqm=0 / deadzone=21,11 / fast_pskip=0 / chroma_qp_offset=-2 / threads=6 / lookahead_threads=1 / sliced_threads=0 / nr=0 / decimate=1 / interlaced=0 / bluray_compat=0 / constrained_intra=0 / bframes=4 / b_pyramid=2 / b_adapt=2 / b_bias=0 / direct=1 / weightb=1 / open_gop=0 / weightp=2 / keyint=250 / keyint_min=23 / scenecut=40 / intra_refresh=0 / rc_lookahead=60 / rc=abr / mbtree=1 / bitrate=2520 / ratetol=1.0 / qcomp=0.60 / qpmin=10 / qpmax=51 / qpstep=4 / ip_ratio=1.40 / aq=1:1.00
   Audio #1
      ID : 1
      Format : MPEG Audio
      Format version : Version 1
      Format profile : Layer 3
      Mode : Joint stereo
      Codec ID : 55
      Codec ID/Hint : MP3
      Duration : 1h 58mn
      Bit rate mode : Constant
      Bit rate : 192 Kbps
      Channel(s) : 2 channels
      Sampling rate : 48.0 KHz
      Compression mode : Lossy
      Stream size : 163 MiB (8%)
      Alignment : Split accross interleaves
      Interleave, duration : 42 ms (1.00 video frame)
      Interleave, preload duration : 500 ms

Скриншоты


_________________
Подпись отключена за нарушение правил форума
[Профиль] [ЛС]

sungoro

Стаж: 3 года 1 месяц

Сообщений: 8

Пост 20-Дек-2014 19:13 (спустя 7 дней)

[Цитировать]

спасибо за раздачу с Кариной,но о чем фильм(main message)-мне не понятно,наверное о каких-то глубинах таинственной японской души..мне показалось, что Наоки или маньяк ,или у него раздвоение личности, или и то и другое(зачем разводной ключ с собой на пробежку брать и прохожих дам колотить?-он их в отличии от Раскольникова,вооруженного правда топором, не грабил вроде..)...все остальные персонажи т.ж. с разными характерными японскими комплексами...
[Профиль] [ЛС]

eliss

Стаж: 2 года 1 месяц

Сообщений: 3

Пост 01-Июл-2015 15:28 (спустя 6 месяцев 10 дней)

[Цитировать]

Спасибо! В этом фильме наиболее четко проявился главный психокомплекс японцев - когда ограниченное пространство ведет к ощущению замкнутого круга времени. Т.е. отсутствие развития, ведущее к смерти. Уже не один япон.фильм видела. где герои мечтают вырваться из замкнутого круга (хотя бы уехать из Японии), но испытывают страх перед открытым миром и переменами.
Валерий, люблю ваш голос, скучаю - давно вас не слышала.
[Профиль] [ЛС]

JokeAr

Стаж: 2 года 4 месяца

Сообщений: 18

Откуда: Киев

Пост 25-Сен-2016 13:07 (спустя 1 год 2 месяца)

[Цитировать]

Замечательный фильм. Размножения личности здесь нет, фильм о том что у каждого свои шрамы в сердце и свои тараканы основанные на этих шрамах, и что обычно даже хорошо знакомые люди лишь поверхностно знают друг друга, не зная что на самом деле творится в голове и душе другого человека, и не хотят этого знать потому что так удобнее. И Японии это касается в первую очередь, японцы, люди с глубокой, нежной и красивой душой, большим потенциалом, живут в клетках собственных жизней, оставаясь одинокими даже среди других. Не будучи счастливыми они продолжают так жить объясняя это тем, что они не знают как нужно жить счастливо, почему-то им всю жизнь кажется что для этого нужен какой-то особый рецепт, которого они не знают, и они просто продолжают жить как все, держа своё одиночество при себе, неся в себе неоткрывающуюся шкатулку в которой хранятся их шрамы и переживания.

_________________
Оптимисты учат английский.
Пессимисты зубрят китайский.
А реалисты осваивают автомат Калашникова…
И только японский… изучают для души!
[Профиль] [ЛС]
Показать сообщения:    
Ответить на тему

Текущее время: Сегодня 03:51

Часовой пояс: GMT



Вы не можете начинать темы
Вы не можете отвечать на сообщения
Вы не можете редактировать свои сообщения
Вы не можете удалять свои сообщения
Вы не можете голосовать в опросах
Вы не можете прикреплять файлы к сообщениям
Вы не можете скачивать файлы