Жалобы на работу трекера ! прошу сюда :)

Тупик/ Dead end (Чанг Че) [1969, DVDRip] DVO GREEN TEA

Ответить на тему
 
Автор Сообщение

Амальфи ®

Стаж: 3 года 10 месяцев

Сообщений: 264

Пост 18-Янв-2015 15:30

[Цитировать]

Тупик/ Dead end
Год выпуска: 1969
Страна: Гонконг-Перевод: двухголосый (закадровый) Александр Шангу и Екатерина Юрьева-
Режиссер:Чанг Че-Описание:
Это история о троих друзьях. Развязанном парне Чжан Чуне, его друге механике - Да Вэе и их подруге хостес - Ма Ли. Чжан Чунь никак не может найти своё место в жизни. Он развлекается с девушками, а вся его работа обрывается ещё до окончания испытательного срока. В то время как Да Вэй увлечённый человек, работает в автосервисе и хорошо разбирается в машинах. А их общая подруга Ма Ли развлекает в клубах богатых клиентов и сшибает неплохие деньги. Однажды во время прогулки на машине, ребята знакомятся с богатой девушкой Вэнь Жоу. Между Чжань Чунем и Вэнь Жоу пробегает искра и вскоре они начинают встречаться. Тем не менее влиятельный брат Вэнь Жоу не одобряет их отношений, ему не нравятся беззаботные молодые люди, которые сами не знают чего хотят от жизни. Джан Чунь же наоборот не любит людей, подобных брату Жоу и не намерен оставлять свою возлюбленную. В итоге вся эта ситуация приводит к самым неожиданным последствиям...-Доп. информация:
Релиз подготовлен группой "GREEN TEA"
Перевод: Kasablanka-Качество: DVDRip
Формат: AVI
Видео кодек: xvid
Аудио кодек: MP3
Видео: 720х320, 1 752 Kbps, 29.970 fps
Аудио: 48.0 KHz, 192 Kbps, 2 channels, Rus

MediaInfo

Код:
Format                                   : AVI
Format/Info                              : Audio Video Interleave
File size                                : 1.37 GiB
Duration                                 : 1h 40mn
Overall bit rate                         : 1 956 Kbps
Writing application                      : VirtualDubMod 1.5.10.2 (build 2540/release)
Writing library                          : VirtualDubMod build 2540/release
Video
ID                                       : 0
Format                                   : xvid
Codec ID                                 : xvid
Duration                                 : 1h 40mn
Bit rate                                 : 1 752 Kbps
Width                                    : 720 pixels
Height                                   : 320 pixels
Display aspect ratio                     : 2.25:1
Frame rate                               : 29.970 fps
Bits/(Pixel*Frame)                       : 0.254
Stream size                              : 1.23 GiB (90%)
Audio
ID                                       : 1
Format                                   : MPEG Audio
Format version                           : Version 1
Format profile                           : Layer 3
Mode                                     : Joint stereo
Codec ID                                 : 55
Codec ID/Hint                            : MP3
Duration                                 : 1h 40mn
Bit rate mode                            : Constant
Bit rate                                 : 192 Kbps
Channel count                            : 2 channels
Sampling rate                            : 48.0 KHz
Compression mode                         : Lossy
Stream size                              : 138 MiB (10%)
Alignment                                : Aligned on interleaves
Interleave, duration                     : 33 ms (1.00 video frame)
Interleave, preload duration             : 504 ms

Скриншоты

[Профиль] [ЛС]

Structural

Стаж: 2 года 11 месяцев

Сообщений: 5

Пост 21-Янв-2015 22:47 (спустя 3 дня)

[Цитировать]

Обалдеть!
Старое доброе Гонконг-муви от Шоу бразерс и Чана Чэ с великолепным дуэтом Ти Луна и Дэвида Чианга.
Здорово, что Вы не забываете классику и взялись за озвучку этого фильма. ay
[Профиль] [ЛС]

Super Warrior

Стаж: 1 месяц 27 дней

Сообщений: 1

Пост 08-Окт-2016 17:20 (спустя 1 год 8 месяцев)

[Цитировать]

Добавьте, пожалуйста, скорости (если не затруднит, конечно). Заранее благодарен.
[Профиль] [ЛС]

jondok

Стаж: 2 года 1 месяц

Сообщений: 706

Откуда: Россия

Пост 08-Окт-2016 17:32 (спустя 11 минут)

[Цитировать]

Добавьте, пожалуйста, скорости (если не затруднит, конечно). Заранее благодарен.
Вас на видно в пирах, скорость больше не будет, на раздаче только хранители, просто стойте на закачке.
[Профиль] [ЛС]
Показать сообщения:    
Ответить на тему

Текущее время: Сегодня 22:23

Часовой пояс: GMT



Вы не можете начинать темы
Вы не можете отвечать на сообщения
Вы не можете редактировать свои сообщения
Вы не можете удалять свои сообщения
Вы не можете голосовать в опросах
Вы не можете прикреплять файлы к сообщениям
Вы не можете скачивать файлы