Жалобы на работу трекера ! прошу сюда :)

Магия Победы / Magic to Win (Уилсон Ип / Wilson Yip) [2011, Гонконг, Китай, фэнтези, BDRip] DVO GREEN TEA

Ответить на тему
 
Автор Сообщение

Амальфи ®

Стаж: 3 года 10 месяцев

Сообщений: 264

Пост 22-Янв-2013 12:38

[Цитировать]

Магия Победы / Magic to Win Страна: Гонконг, Китай
Жанр: фэнтези
Год выпуска: 2011
Продолжительность: 01:40:00
Перевод: Двухголосый закадровый Ustas Alexis, pandora2177
Режиссер: Уилсон Ип / Wilson Yip
В ролях: Чун Ву, Бак-Минг Вонг, Джеки Ву, Karena Ng, Янь Ни, Луис Ку
Описание:
Мир состоит из пяти элементов: металла, дерева, воды, огня и земли. Основой волшебного мира в фильме является «магия пяти элементов». Университетский профессор Хун Сум-Квай — маг воды. Он пользуется магией каждый день, но о его способностях не знает никто. Однажды по случайному стечению обстоятельств его сила передаётся студентке Мейси, и у обычной девушки начинается жизнь, полная приключений. В волшебном мире всегда царило спокойствие, маг огня, находит способ путешествовать во времени. Он собирается изменить важное событие из своего прошлого и завладеть силой пяти элементов. Бут просит помощи у своего приятеля Лин Фуна, мага земли, но тот не соглашается, ведь изменение прошлого может вызвать огромные проблемы. Между двумя друзьями разгорается ссора. В попытке остановить его, Лин сообщает остальным об опасном плане мага огня, но тот на него нападает, и в библиотеке начинается бой с использованием магии. Тяжелораненый Лин становится невидимкой и теряет память.
Доп. информация:
Релиз: Релиз-группа "GREEN TEA"
Перевод: pandora2177, Xani, Sibiande, Алекс Викке, Feride1292, SSMEDVEDSS
Редактура: pandora2177
Отдельное спасибо: chopper887
Сэмпл: http://multi-up.com/649190
Качество видео: BDRip (исходник Magic.to.Win.2011.BluRay.1080p.AVC.DTS-HD.MA5.1-CHDBits)
Формат видео: AVI
Видео: XviD, 720х304, 4:2:0, 24,000 кадра/сек, 24,000 кадра/сек, 1673 Кбит/сек
Аудио: AC-3, 48,0 КГц, 384 Кбит/сек, 6 каналов

MediaInfo

Формат : AVI
Формат/Информация : Audio Video Interleave
Размер файла : 1,44 Гбайт
Продолжительность : 1 ч. 40 м.
Общий поток : 2066 Кбит/сек
Программа кодирования : VirtualDubMod 1.5.10.2 (build 2540/release)
Библиотека кодирования : VirtualDubMod build 2540/release
Видео
Идентификатор : 0
Формат : MPEG-4 Visual
Профиль формата : Advanced Simple@L5
Параметр BVOP формата : 2
Параметр QPel формата : Нет
Параметр GMC формата : Без точки перехода
Параметр матрицы формата : Выборочная
Идентификатор кодека : XVID
Идентификатор кодека/Подсказка : XviD
Продолжительность : 1 ч. 40 м.
Битрейт : 1673 Кбит/сек
Ширина : 720 пикселей
Высота : 304 пикселя
Соотношение сторон : 2,35:1
Частота кадров : 24,000 кадра/сек
Цветовое пространство : YUV
Субдискретизация насыщенности : 4:2:0
Битовая глубина : 8 бит
Тип развёртки : Прогрессивная
Метод сжатия : С потерями
Бит/(Пиксели*Кадры) : 0.318
Размер потока : 1,17 Гбайт (81%)
Библиотека кодирования : XviD 63
Аудио
Идентификатор : 1
Формат : AC-3
Формат/Информация : Audio Coding 3
Расширение режима : CM (complete main)
Идентификатор кодека : 2000
Продолжительность : 1 ч. 40 м.
Вид битрейта : Постоянный
Битрейт : 384 Кбит/сек
Каналы : 6 каналов
Расположение каналов : Front: L C R, Side: L R, LFE
Частота : 48,0 КГц
Битовая глубина : 16 бит
Метод сжатия : С потерями
Размер потока : 275 Мбайт (19%)
Выравнивание : Разделение по промежуткам
Продолжительность промежутка : 42 мс. (1,00 видеокадр)
Время предзагрузки промежутка : 500 мс.

Скриншот с названием фильма

Скриноты

[Профиль] [ЛС]

lenivaya10002

Стаж: 3 года 9 месяцев

Сообщений: 37

Пост 03-Мар-2013 14:19 (спустя 1 месяц 12 дней)

[Цитировать]

ну-ка, ну-ка :)... киски на постере яркие... скоро попробуем

_________________
верхняя это обиженная нижняя у которой нет хозяина
[Профиль] [ЛС]

lenivaya10002

Стаж: 3 года 9 месяцев

Сообщений: 37

Пост 04-Мар-2013 00:35 (спустя 10 часов)

[Цитировать]

посмотрел ...у гг тян симпатичное лицо анфас.... но его можно посмотреть и на постере (самка слева) :)))...
По сути дела, в видео, фильма просто нету :). Есть склеенный набор реплик + немного летающих чашек и огоньков а-ля 3Ds max. И все это продолжается 100 минут :))).
Просмотр игровой записи, тупого компьютерного месива Mortal Kombat, по ссылке
http://www.youtube.com/watch?v=TtixtklbE6Y&feature=em-subs_digest-vrecs
, доставит гораздо большее удовольствие, даже тем, кто не любит тупое компьютерное месиво.
Не уверен даже в том, что фильм "Магия победы" может доставить удовольствие людям младше 8 лет, разве что впервые увидевшим спецэффекты.
P.S. я не буду ЭТО сидировать... удаляю скачанную раздачу с компьютера. Смотрите видео по ссылке на ютуб, там тоже волшебство и борьба сил. Больше сказать нечего.

_________________
верхняя это обиженная нижняя у которой нет хозяина
[Профиль] [ЛС]

хенкель

Стаж: 2 года 10 месяцев

Сообщений: 6

Пост 10-Фев-2014 22:41 (спустя 11 месяцев 6 дней)

[Цитировать]

станьте на раздачу.
[Профиль] [ЛС]

pigma4

Стаж: 2 года 3 месяца

Сообщений: 1

Пост 30-Авг-2014 10:06 (спустя 6 месяцев 19 дней)

[Цитировать]

встаньте на раздачу.
[Профиль] [ЛС]
Показать сообщения:    
Ответить на тему

Текущее время: Сегодня 05:48

Часовой пояс: GMT



Вы не можете начинать темы
Вы не можете отвечать на сообщения
Вы не можете редактировать свои сообщения
Вы не можете удалять свои сообщения
Вы не можете голосовать в опросах
Вы не можете прикреплять файлы к сообщениям
Вы не можете скачивать файлы