Жалобы на работу трекера ! прошу сюда :)

Всё о любви / All about love / Tsoi suet yuk chi ngo oi nei (Дениел Ю / Daniel Yu Wai-Kwok, Ли Кунг-Лок / Kung-Lok Lee) [2005, Гонконг, Китай, мелодрама, DVDRip] DVO GREEN TEA

Ответить на тему
 
Автор Сообщение

pandora2177 ®

Стаж: 3 года 10 месяцев

Сообщений: 368

Пост 23-Янв-2013 06:54

[Цитировать]

Всё о любви / All about love / Tsoi suet yuk chi ngo oi nei
-
Страна: Гонконг, Китай
Жанр: мелодрама
Год выпуска: 2005
Продолжительность: 01:40:17
Перевод: двухголосый закадровый pandora2177, mi24
Сэмпл: http://multi-up.com/630471
Работа со звуком: future-bit
Cубтитры: нет
Режиссер: Дениел Ю / Daniel Yu Wai-Kwok , Ли Кунг-Лок / Kung-Lok Lee
В ролях: Энди Лау, Чарли Юнг, Чарлин Чой, Энтони Вонг, Хуи Сиу-Хунг, Аллен Лин, Амбер Сю и другие.
Описание: У доктора Ко- молодая и любимая жена, но слишком часто работа в его жизни ставится на первое место. А жена собирает обещанные "ну завтра обязательно!", пока после 168-го "завтра" не гибнет в автокатастрофе.
Ко бросает перспективную работу в клинике и уходит работать врачом скорой помощи. Шесть лет спустя, вытаскивая из машины молодую женщину, он внезапно ощущает к ней странное влечение. Женщина успевает сказать врачам, что ей пересадили сердце, а несколько минут спустя Ко узнает в её кардиологе доктора, который просил его подписать бумаги о пересадке сердца его погибшей жены.
Ко пытается узнать больше о жизни Сам- так зовут молодую женщину. Оказывается, что они с мужем расстались, но, странная история- ее муж как две капли воды похож на Ко. А еще пересадка прошла не очень успешно, и женщина скоро умрёт...
Тогда Ко решает сделать всё, чтобы Сам была счастлива.
Доп. информация:
Озвучено по субтитрам от nasinix
Релиз: Релиз-группа "GREEN TEA"
Качество видео: DVDRip
Формат видео: AVI
Видео: XviD, 592x320 (1.85:1), 23,976 кадра/сек, 777 Кбит/сек
Аудио: МР3, 48,0 КГц, 192 Кбит/сек, 2 канала

MediaInfo

Формат : AVI
Формат/Информация : Audio Video Interleave
Размер файла : 691 Мбайт
Продолжительность : 1 ч. 40 м.
Режим общего битрейта : Переменный
Общий поток : 963 Кбит/сек
Программа кодирования : Nandub v1.0rc2
Библиотека кодирования : Nandub build 1853/release
Видео
Идентификатор : 0
Формат : MPEG-4 Visual
Профиль формата : Simple@L3
Параметр BVOP формата : 2
Параметр QPel формата : Нет
Параметр GMC формата : Без точки перехода
Параметр матрицы формата : Default (H.263)
Режим смешивания : Сжатый битовый поток
Идентификатор кодека : XVID
Идентификатор кодека/Подсказка : XviD
Продолжительность : 1 ч. 40 м.
Битрейт : 777 Кбит/сек
Ширина : 592 пикселя
Высота : 320 пикселей
Соотношение сторон : 1,850
Частота кадров : 23,976 кадра/сек
Цветовое пространство : YUV
Субдискретизация насыщенности : 4:2:0
Битовая глубина : 8 бит
Тип развёртки : Прогрессивная
Метод сжатия : С потерями
Бит/(Пиксели*Кадры) : 0.171
Размер потока : 558 Мбайт (81%)
Библиотека кодирования : XviD 1.0.3 (UTC 2004-12-20)
Аудио
Идентификатор : 1
Формат : MPEG Audio
Версия формата : Version 1
Профиль формата : Layer 3
Режим : Joint stereo
Идентификатор кодека : 55
Идентификатор кодека/Подсказка : MP3
Продолжительность : 1 ч. 40 м.
Вид битрейта : Переменный
Битрейт : 173 Кбит/сек
Номинальный битрейт : 192 Кбит/сек
Каналы : 2 канала
Частота : 48,0 КГц
Метод сжатия : С потерями
Размер потока : 124 Мбайт (18%)
Выравнивание : Соединение по промежуткам
Продолжительность промежутка : 24 мс. (0,58 видеокадр)
Время предзагрузки промежутка : 590 мс.
Библиотека кодирования : LAME3.99r
Настройки программы : -m j -V 4 -q 2 -lowpass 18.6 --abr 192

Скриншот c названием фильма

Скриншоты





[Профиль] [ЛС]

StasiAsiya

Стаж: 3 года 10 месяцев

Сообщений: 14

Пост 24-Янв-2013 06:42 (спустя 23 часа)

[Цитировать]

Заинтересовало описание, надо посмотреть!!!
[Профиль] [ЛС]

Айсана

Стаж: 2 года 11 месяцев

Сообщений: 1

Пост 15-Янв-2014 16:09 (спустя 11 месяцев 22 дня)

[Цитировать]

очень похож на один индийский фильм название забыла но описание очень похожа на эту
[Профиль] [ЛС]

meta777

Стаж: 3 года 1 месяц

Сообщений: 16

Пост 18-Янв-2014 10:20 (спустя 2 дня 18 часов)

[Цитировать]

кто-нибудь....встаньте на раздачу)))) спасибо
[Профиль] [ЛС]
Показать сообщения:    
Ответить на тему

Текущее время: Сегодня 18:27

Часовой пояс: GMT



Вы не можете начинать темы
Вы не можете отвечать на сообщения
Вы не можете редактировать свои сообщения
Вы не можете удалять свои сообщения
Вы не можете голосовать в опросах
Вы не можете прикреплять файлы к сообщениям
Вы не можете скачивать файлы