Жалобы на работу трекера ! прошу сюда :)

Зеленый чай / Green Tea / Lü cha (Чжан Юань / Zhang Yuan) [2003, Китай, мелодрама, DVDRip] DVO GREEN TEA

Ответить на тему
 
Автор Сообщение

Bermud ®

Стаж: 3 года 10 месяцев

Сообщений: 27

Пост 23-Янв-2013 16:51

[Цитировать]

Зеленый чай / Green Tea / Lü cha (Чжан Юань / Zhang Yuan) [2003, Китай, мелодрама, DVDRip] DVO GREEN TEAЗеленый чай / Green Tea / Lü cha Страна: Китай
Жанр: мелодрама
Год выпуска: 2003
Продолжительность: 1:22:49
Перевод: Любительский (двухголосый закадровый) lama, Ustas Alexis
Cубтитры: нет
Режиссер: Чжан Юань / Zhang Yuan
Оператор: Кристофер Дойл / Christopher Doyle
Композитор: Цун Су / Cong Su
В ролях:
Jiang Wen / Цзян Вэнь в роли Чэнь Минляна
Wei Zhao / Чжао Вэй в роли У Фан
Lijun Fang / Лицзюнь Фан в роли Фана
Zhang Yuan / Чжан Юань в роли Чжана
Описание: Аспирантка У Фан хочет выйти замуж и одержима «свиданиями вслепую».
Она встречается с бесконечным количеством незнакомых мужчин и не пьет ничего, кроме зеленого чая.
Однажды к ней приходит на свидание Чэнь, который пьет только кофе,
ничего не понимает в зеленом чае, но зато хорошо разбирается в женщинах.
Как вы думаете, чашка зеленого чая сможет помочь найти настоящую любовь?
Доп. информация: Озвучено по субтитрам julz_nsk
Сэмпл: http://multi-up.com/623905
Качество видео: DVDRip (взят http://rutracker.org/forum/viewtopic.php?t=3813329)
Формат видео: AVI
Видео: 608x336 (16:9), XviD MPEG-4, 25.000 fps, ~ 1 042 kbps avg, 0.204 bit/pixel
Аудио: MP3, 44,1 КГц, 192 Кбит/сек, 2 канала
Релиз: релиз-группа "GREEN TEA"

MediaInfo

Формат : AVI
Формат/Информация : Audio Video Interleave
Размер файла : 737 Мбайт
Продолжительность : 1 ч. 22 м.
Общий поток : 1243 Кбит/сек
Программа кодирования : VirtualDubMod 1.5.10.2 (build 2540/release)
Библиотека кодирования : VirtualDubMod build 2540/release
Видео
Идентификатор : 0
Формат : MPEG-4 Visual
Профиль формата : Simple@L3
Параметр BVOP формата : Нет
Параметр QPel формата : Нет
Параметр GMC формата : Без точки перехода
Параметр матрицы формата : Default (H.263)
Идентификатор кодека : XVID
Идентификатор кодека/Подсказка : XviD
Продолжительность : 1 ч. 22 м.
Битрейт : 1042 Кбит/сек
Ширина : 608 пикселей
Высота : 336 пикселей
Соотношение сторон : 16:9
Частота кадров : 25,000 кадров/сек
Цветовое пространство : YUV
Субдискретизация насыщенности : 4:2:0
Битовая глубина : 8 бит
Тип развёртки : Прогрессивная
Метод сжатия : С потерями
Бит/(Пиксели*Кадры) : 0.204
Размер потока : 617 Мбайт (84%)
Библиотека кодирования : XviD 0.0.09 (UTC 2003-03-25)
Аудио
Идентификатор : 1
Формат : MPEG Audio
Версия формата : Version 1
Профиль формата : Layer 3
Идентификатор кодека : 55
Идентификатор кодека/Подсказка : MP3
Продолжительность : 1 ч. 22 м.
Вид битрейта : Постоянный
Битрейт : 192 Кбит/сек
Каналы : 2 канала
Частота : 44,1 КГц
Метод сжатия : С потерями
Размер потока : 114 Мбайт (15%)
Выравнивание : Разделение по промежуткам
Продолжительность промежутка : 40 мс. (1,00 видеокадр)
Время предзагрузки промежутка : 500 мс.

Скриншот c названием фильма

Скриншоты





[Профиль] [ЛС]

meartem

Стаж: 3 года 10 месяцев

Сообщений: 1

Пост 27-Янв-2013 07:55 (спустя 3 дня)

[Цитировать]

Знаю есть рип лучшего качества. Можете его выложить?
[Профиль] [ЛС]
Показать сообщения:    
Ответить на тему

Текущее время: Сегодня 20:06

Часовой пояс: GMT



Вы не можете начинать темы
Вы не можете отвечать на сообщения
Вы не можете редактировать свои сообщения
Вы не можете удалять свои сообщения
Вы не можете голосовать в опросах
Вы не можете прикреплять файлы к сообщениям
Вы не можете скачивать файлы