Жалобы на работу трекера ! прошу сюда :)

Красивая жизнь / A Beautiful Life / Mei Li Ren Sheng (Вэй Кеунг Лау / Wai Keung Lau) [2011, Гонконг, Китай, драма, мелодрама, DVDRip] DVO GREEN TEA

Ответить на тему
 
Автор Сообщение

Ульяна Громова ®

Стаж: 3 года 10 месяцев

Сообщений: 219

Пост 19-Янв-2013 05:31

[Цитировать]

Красивая жизнь / A Beautiful Life / Mei Li Ren Sheng
Страна: Гонконг, Китай
Жанр: драма, мелодрама
Год выпуска: 2011
Продолжительность: 2:02:21
Перевод: Двухголосый закадровый mi24 и Ульяна Громова
Cубтитры: нет
Режиссер: Вэй Кеунг Лау / Wai Keung Lau
В ролях: Шу Ци/Shu Qi, Е Лю/Ye Liu, Энтони Вонг Чау-Санг/Anthony Wong Chau-Sang, Лианг Тиан/Liang Tian, Даньин Фэн/Danying Feng, Рина Са/Rina Sa
Описание: Она - девушка из Гонконга, приехавшая в Пекин в поисках лучшей жизни. Она носит туфли на высоких каблуках и верит, что всё ещё может обойтись без мужчин и их денег. У неё проблемы с алкоголем и её парнем, ей грустно и одиноко в этом огромном мире.
Он - пекинский полицейский. Каждый день он патрулирует улицы города, а после работы всецело посвящает себя заботе о младшем брате, который не способен сам заботится о себе. Однажды обжегшись, он не спешит вновь связывать себя узами брака.
Как-то раз они встретились в ночном караоке-клубе. Что это? Случайная встреча или начало красивой жизни? (с) Умный Веник
Доп. информация: Релиз-группа "GREEN TEA"
Озвучено по переводу Умный Веник
Сэмпл: http://multi-up.com/644528
Качество видео: DVDRip
Формат видео: AVI
Видео: XviD, 1139 Кбит/с, 640x272, 23.976 fps
Аудио: MP3, 2 ch, 192 Кбит/с, 48000 Hz

MediaInfo

General
Complete name : D:\торренты\A Beautiful Life GREEN TEA.avi
Format : AVI
Format/Info : Audio Video Interleave
File size : 1.15 GiB
Duration : 2h 2mn
Overall bit rate : 1 340 Kbps
Writing application : VirtualDubMod 1.5.10.2 (build 2540/release)
Writing library : VirtualDubMod build 2540/release
Video
ID : 0
Format : MPEG-4 Visual
Format profile : Simple@L3
Format settings, BVOP : 2
Format settings, QPel : No
Format settings, GMC : No warppoints
Format settings, Matrix : Default (H.263)
Muxing mode : Packed bitstream
Codec ID : XVID
Codec ID/Hint : XviD
Duration : 2h 2mn
Bit rate : 1 139 Kbps
Width : 640 pixels
Height : 272 pixels
Display aspect ratio : 2.35:1
Frame rate : 23.976 fps
Color space : YUV
Chroma subsampling : 4:2:0
Bit depth : 8 bits
Scan type : Progressive
Compression mode : Lossy
Bits/(Pixel*Frame) : 0.273
Stream size : 996 MiB (85%)
Writing library : XviD 1.0.3 (UTC 2004-12-20)
Audio
ID : 1
Format : MPEG Audio
Format version : Version 1
Format profile : Layer 3
Mode : Joint stereo
Codec ID : 55
Codec ID/Hint : MP3
Duration : 2h 2mn
Bit rate mode : Constant
Bit rate : 192 Kbps
Channel(s) : 2 channels
Sampling rate : 48.0 KHz
Compression mode : Lossy
Stream size : 168 MiB (14%)
Alignment : Aligned on interleaves
Interleave, duration : 42 ms (1.00 video frame)
Interleave, preload duration : 504 ms

Скриншот c названием фильма

Скриншоты


[Профиль] [ЛС]

lenivaya10002

Стаж: 3 года 9 месяцев

Сообщений: 37

Пост 02-Мар-2013 17:05 (спустя 1 месяц 14 дней)

[Цитировать]

вчера пропал единственный сид... не могу скачать ... 54% и наступила тишина ... сид сид появись!!!

_________________
верхняя это обиженная нижняя у которой нет хозяина
[Профиль] [ЛС]

lenivaya10002

Стаж: 3 года 9 месяцев

Сообщений: 37

Пост 04-Мар-2013 02:29 (спустя 1 день 9 часов)

[Цитировать]

... скачал... сейчас посмотрим

_________________
верхняя это обиженная нижняя у которой нет хозяина
[Профиль] [ЛС]

lenivaya10002

Стаж: 3 года 9 месяцев

Сообщений: 37

Пост 04-Мар-2013 23:20 (спустя 20 часов)

[Цитировать]

Хороший грустный фильм...
Достоинства:
- озвучка;
- процесс просмотра не утомляет;
- приятный подбор актеров;
- натуральная игра актеров;
- тем, кто находится продолжительное время на территории ресурсии, может дополнительно взгрустнуться, при виде воспитанных продажных слуг, которые ведут себя как доброжелательные волонтеры, даже под спиртом. Не будем уточнять, на этом форуме, как ведут себя мусора ресурсии и другие продажные слуги ресурсии.









_________________
верхняя это обиженная нижняя у которой нет хозяина
[Профиль] [ЛС]
Показать сообщения:    
Ответить на тему

Текущее время: Сегодня 22:07

Часовой пояс: GMT



Вы не можете начинать темы
Вы не можете отвечать на сообщения
Вы не можете редактировать свои сообщения
Вы не можете удалять свои сообщения
Вы не можете голосовать в опросах
Вы не можете прикреплять файлы к сообщениям
Вы не можете скачивать файлы