Жалобы на работу трекера ! прошу сюда :)

Летающие мечи врат дракона / Long men fei jia / The Flying Swords of Dragon Gate (Харк Цуй / Hark Tsui) [2011 г., боевик, приключения, HDTVRip] DVO GREEN TEA

Ответить на тему
 
Автор Сообщение

dusy78 ®

Стаж: 3 года 10 месяцев

Сообщений: 1005

Откуда: Россия

Пост 09-Мар-2013 16:03

[Цитировать]

Летающие мечи врат дракона
Long men fei jia / The Flying Swords of Dragon Gate

Год выпуска: 2011
Страна: Китай
Жанр: боевик, приключения
Продолжительность: 02:01:58
Перевод: двухголосый закадровый pandora2177 и Олег Варганов
Семпл: http://sendfile.su/775545
Режиссер: Харк Цуй / Hark Tsui
В ролях: Джет Ли
Чжоу Сюнь
Чэнь Кунь
Луньмэй Квай
Ли Юйчунь
Мевис Фэн
Фан Сю-Вонг
Джа Хуи Лью
Описание: Фильм с романтическим названием "Летающие мечи врат дракона" рассказывает о генерале и евнухе, живущими в средневековом Китае. Генерал Чоу Вай-У с евнухом Тсяо Сы-Янем выясняют отношения с помощью грубой физической силы, возведённой в Китае в ранг высокого искусства. Смотреть боевые сцены с применением самых разных изощрённейших приёмов китайского рукопашного боя (где немалое значение придаётся и ударной технике ногами) - сплошное и высокое удовольствие, когда смотришь фильм, в первую очередь, именно из-за таких схваток. А кроме того и сам сюжет довольно запутанный и необычный, с китайской спецификой, где притягивает именно культура, обычаи и отношения героев между собой.
Доп. информация:
Релиз: группа GREEN TEA и студия КиНаТан
Перевод: lion-queen, Estonka, Honey
Редакция: Weird
Работа со звуком и рип: Bermud
Оформление постера: NovA_JKE

Качество: HDTVRip
Формат: AVI
Аудио кодек: MP3
Видео: 720x304 (2,35:1) Кадр/сек 23.976 fps Битрейт (kbps) 1433
Аудио: mp3 Каналов 2 Частота 48 Битрейт 192

MediaInfo

Формат : AVI
Формат/Информация : Audio Video Interleave
Размер файла : 1,40 Гбайт
Продолжительность : 2 ч. 2 м.
Общий поток : 1634 Кбит/сек
Программа кодирования : VirtualDubMod 1.5.10.2 (build 2540/release)
Библиотека кодирования : VirtualDubMod build 2540/release
Видео
Идентификатор : 0
Формат : MPEG-4 Visual
Профиль формата : Advanced Simple@L5
Параметр BVOP формата : 1
Параметр QPel формата : Нет
Параметр GMC формата : Без точки перехода
Параметр матрицы формата : Выборочная
Режим смешивания : Сжатый битовый поток
Идентификатор кодека : XVID
Идентификатор кодека/Подсказка : XviD
Продолжительность : 2 ч. 2 м.
Битрейт : 1433 Кбит/сек
Ширина : 720 пикс.
Высота : 304 пикс.
Соотношение сторон : 2,35:1
Частота кадров : 23,976 кадр/сек
Цветовое пространство : YUV
Подвыборка цветности : 4:2:0
Битовая глубина : 8 бит
Тип развёртки : Прогрессивная
Метод сжатия : С потерями
Бит/(Пиксели*Кадры) : 0.273
Размер потока : 1,22 Гбайт (88%)
Библиотека кодирования : XviD 65
Аудио
Идентификатор : 1
Формат : MPEG Audio
Версия формата : Version 1
Профиль формата : Layer 3
Режим : Joint stereo
Идентификатор кодека : 55
Идентификатор кодека/Подсказка : MP3
Продолжительность : 2 ч. 2 м.
Вид битрейта : Постоянный
Битрейт : 192 Кбит/сек
Каналы : 2 канала
Частота : 48,0 КГц
Метод сжатия : С потерями
Размер потока : 168 Мбайт (12%)
Выравнивание : Соединение по промежуткам
Продолжительность промежутка : 42 мс. (1,00 видеокадр)
Время предзагрузки промежутка : 504 ms

Скриншот с названием фильма

Скриншоты

[Профиль] [ЛС]
Показать сообщения:    
Ответить на тему

Текущее время: Сегодня 09:40

Часовой пояс: GMT



Вы не можете начинать темы
Вы не можете отвечать на сообщения
Вы не можете редактировать свои сообщения
Вы не можете удалять свои сообщения
Вы не можете голосовать в опросах
Вы не можете прикреплять файлы к сообщениям
Вы не можете скачивать файлы