Жалобы на работу трекера ! прошу сюда :)

Последний магнат / Da Shang Hai / The Last Tycoon (Цзин Вон) [2012 г., драма, мелодрама, приключения, военный, DVDRip]

Ответить на тему
 
Автор Сообщение

dusy78 ®

Стаж: 3 года 10 месяцев

Сообщений: 1005

Откуда: Россия

Пост 17-Мар-2013 13:36

[Цитировать]

Последний магнат / Da Shang Hai / The Last Tycoon
Год выпуска: 2012
Страна: Гонконг, Китай
Жанр: драма, мелодрама, приключения, военный
Продолжительность: 107 мин.
Перевод: двухголосый закадровый
Виктор Ерёменко и Екатерина Герасимова (Catastrophe)
Семпл: http://yadi.sk/d/DS3YhsOI3Khhl
Режиссер: Цзин Вон
В ролях: Саммо Хунг
Чоу Юнь-Фат
Фрэнсис НГ
Ясуаки Курата
Хуанг Сяомин
Описание: Реальная история лидера бандитской группировки, который построил свою империю, существовавшую в 1920-е и 30-е года в Шанхае.
Доп. информация:
Релиз подготовлен при поддержке stepashka.com
Релиз: группа GREEN TEA
Оформление постера: Amoreon
Перевод: Эльза Нордж
Озвучивали: Виктор Ерёменко и Екатерина Герасимова (Catastrophe)
Работа над звуком: Ольга Гринтиева
Рип: Андрей Буреев (Bermud)
Качество: DVDRip
Формат: AVI
Видео кодек: XviD
Аудио кодек: MP3
Видео: 720х304, битрейд 2164 Кбит/сек, Частота кадров 24,000 кадра/сек
Аудио: RUS(int), MP3, частота 48.0 KHz, битрейт 192 Kbps

Медиаинфо

Формат : AVI
Формат/Информация : Audio Video Interleave
Размер файла : 1,97 Гбайт
Продолжительность : 1 ч. 59 м.
Общий поток : 2365 Кбит/сек
Программа кодирования : VirtualDubMod 1.5.10.2 (build 2540/release)
Библиотека кодирования : VirtualDubMod build 2540/release
Видео
Идентификатор : 0
Формат : MPEG-4 Visual
Профиль формата : Advanced Simple@L5
Параметр BVOP формата : 1
Параметр QPel формата : Нет
Параметр GMC формата : Без точки перехода
Параметр матрицы формата : Выборочная
Идентификатор кодека : XVID
Идентификатор кодека/Подсказка : XviD
Продолжительность : 1 ч. 59 м.
Битрейт : 2164 Кбит/сек
Ширина : 720 пикселей
Высота : 304 пикселя
Соотношение сторон : 2,35:1
Частота кадров : 24,000 кадра/сек
Цветовое пространство : YUV
Субдискретизация насыщенности : 4:2:0
Битовая глубина : 8 бит
Тип развёртки : Прогрессивная
Метод сжатия : С потерями
Бит/(Пиксели*Кадры) : 0.412
Размер потока : 1,80 Гбайт (91%)
Библиотека кодирования : XviD 72
Аудио
Идентификатор : 1
Формат : MPEG Audio
Версия формата : Version 1
Профиль формата : Layer 3
Режим : Joint stereo
Идентификатор кодека : 55
Идентификатор кодека/Подсказка : MP3
Продолжительность : 1 ч. 59 м.
Вид битрейта : Постоянный
Битрейт : 192 Кбит/сек
Каналы : 2 канала
Частота : 48,0 КГц
Метод сжатия : С потерями
Размер потока : 163 Мбайт (8%)
Выравнивание : Соединение по промежуткам
Продолжительность промежутка : 42 мс. (1,00 видеокадр)
Время предзагрузки промежутка : 504 мс.

Скриншоты

[Профиль] [ЛС]

Rems

Стаж: 3 года 8 месяцев

Сообщений: 2

Откуда: Москва

Пост 18-Мар-2013 02:15 (спустя 12 часов)

[Цитировать]

Спасибо

_________________
Я мог бы стать самым известным в мире врачом... Но стал самым известным на свете пациентом. Джеки Чан
[Профиль] [ЛС]

InDEeC

Стаж: 2 года 2 месяца

Сообщений: 39

Откуда: Москва

Пост 16-Окт-2014 10:33 (спустя 1 год 6 месяцев)

[Цитировать]

Встаньте на раздачу, если есть у кого...
[Профиль] [ЛС]
Показать сообщения:    
Ответить на тему

Текущее время: Сегодня 16:05

Часовой пояс: GMT



Вы не можете начинать темы
Вы не можете отвечать на сообщения
Вы не можете редактировать свои сообщения
Вы не можете удалять свои сообщения
Вы не можете голосовать в опросах
Вы не можете прикреплять файлы к сообщениям
Вы не можете скачивать файлы