Жалобы на работу трекера ! прошу сюда :)

Слепой детектив / Blind Detective / Man Tam (Джонни То / Johnnie To) [2013 г., триллер, детектив, комедия, драма, BDRip]

Ответить на тему
 
Автор Сообщение

Константин Романов ®

Стаж: 3 года 2 месяца

Сообщений: 125

Пост 01-Дек-2013 12:22

[Цитировать]

Слепой детектив
Blind Detective / Man Tam

Год выпуска: 2013
Страна: Гонконг
Жанр: триллер, детектив, комедия, драма
Продолжительность: 2:09:37-Перевод: Двухголосый (закадровый) Ольга Гринтиева и Константин Романов-Режиссер: Джонни То / Johnnie To
В ролях: Энди Лау / Сэмми Чэн / Гао Юаньюань / Тао Го / Филип Кеунг / Сует Лам-Описание: Он — талантливый детектив, вынужденный уйти в отставку после того, как во время выполнения задания потерял зрение. С тех пор он зарабатывает на жизнь тем, что распутывает дела, с которыми не может справиться полиция. Она — многообещающий полицейский агент, терзаемая чувством вины из-за пропажи подруги детства. Потрясенная тем, с каким блеском он раскрывает дело, она просит его помочь разыскать ее подругу. Он соглашается… по только ему известным причинам.-Доп. информация: Доп. информация: релиз группы GREEN TEA
Перевод: Калинин Игорь
Тайминг: Юлия Вредная и Геннадий Дахно
Работа со звуком: Ольга Гринтиева и Олег Широков-Качество: BDRip [CHD]
Формат: MKV
Видео кодек: H.26x
Аудио кодек: DTS
Видео: 1920 x 804 (2.40:1), 24.000 fps, x264, 9862 kbps, 0.266 bpp
Аудио: DTS; 1510 Kbps; CBR; 6 ch; 48 khz; 24 bit [Русский] | DVO-

МедиаИнфо

Complete name :[GREEN TEA] Слепой детектив.2013.BluRay.1080p.Rus.DTS.x264-CHD.mkv
Format : Matroska
Format version : Version 2
File size : 10.3 GiB
Duration : 2h 9mn
Overall bit rate : 11.4 Mbps
Encoded date : UTC 2013-12-01 11:31:16
Writing application : mkvmerge v5.4.0 ('Piper') built on Mar 10 2012 13:34:39
Writing library : libebml v1.2.3 + libmatroska v1.3.0
Video
ID : 1
Format : AVC
Format/Info : Advanced Video Codec
Format profile : High@L4.1
Format settings, CABAC : Yes
Format settings, ReFrames : 5 frames
Codec ID : V_MPEG4/ISO/AVC
Duration : 2h 9mn
Bit rate : 9 862 Kbps
Width : 1 920 pixels
Height : 804 pixels
Display aspect ratio : 2.40:1
Frame rate : 24.000 fps
Color space : YUV
Chroma subsampling : 4:2:0
Bit depth : 8 bits
Scan type : Progressive
Bits/(Pixel*Frame) : 0.266
Stream size : 8.72 GiB (85%)
Title : Blind.Detective.2013.BluRay.1080p.DTS.x264-CHD
Writing library : x264 core 138 r2356 a1d3d17
Encoding settings : cabac=1 / ref=5 / deblock=1:-3:-3 / analyse=0x3:0x113 / me=umh / subme=10 / psy=1 / psy_rd=1.00:0.05 / mixed_ref=1 / me_range=32 / chroma_me=1 / trellis=2 / 8x8dct=1 / cqm=0 / deadzone=21,11 / fast_pskip=0 / chroma_qp_offset=-2 / threads=18 / lookahead_threads=1 / sliced_threads=0 / nr=0 / decimate=1 / interlaced=0 / bluray_compat=0 / constrained_intra=0 / bframes=5 / b_pyramid=2 / b_adapt=2 / b_bias=0 / direct=3 / weightb=1 / open_gop=0 / weightp=2 / keyint=250 / keyint_min=24 / scenecut=40 / intra_refresh=0 / rc=2pass / mbtree=0 / bitrate=9862 / ratetol=1.0 / qcomp=0.70 / qpmin=0 / qpmax=69 / qpstep=4 / cplxblur=20.0 / qblur=0.5 / ip_ratio=1.40 / pb_ratio=1.30 / aq=2:0.90
Language : Chinese
Default : Yes
Forced : No
Audio
ID : 2
Format : DTS
Format/Info : Digital Theater Systems
Codec ID : A_DTS
Duration : 2h 9mn
Bit rate mode : Constant
Bit rate : 1 510 Kbps
Channel(s) : 6 channels
Channel positions : Front: L C R, Side: L R, LFE
Sampling rate : 48.0 KHz
Bit depth : 24 bits
Compression mode : Lossy
Stream size : 1.37 GiB (13%)
Title : DTSMA-Core 5.1CH @ 1536K [Ольга Гринтиева и Константин Романов | GREEN TEA]
Language : Russian
Default : Yes
Forced : No

Скриншоты

[Профиль] [ЛС]

Carioka

Стаж: 3 года 1 месяц

Сообщений: 2

Пост 08-Янв-2014 16:27 (спустя 1 месяц 7 дней)

[Цитировать]

Спасибо!
[Профиль] [ЛС]

nnestor

Стаж: 2 года 11 месяцев

Сообщений: 116

Пост 08-Фев-2014 14:26 (спустя 30 дней)

[Цитировать]

скорость конечно аховая
выше 100кило ни разу не поднялась
[Профиль] [ЛС]
Показать сообщения:    
Ответить на тему

Текущее время: Сегодня 02:05

Часовой пояс: GMT



Вы не можете начинать темы
Вы не можете отвечать на сообщения
Вы не можете редактировать свои сообщения
Вы не можете удалять свои сообщения
Вы не можете голосовать в опросах
Вы не можете прикреплять файлы к сообщениям
Вы не можете скачивать файлы