Жалобы на работу трекера ! прошу сюда :)

Молодой детектив Ди: восстание царя драконов / Молодой детектив Ди: Восстание морского дракона / Young Detective Dee: Rise of the Sea Dragon (Цуй Харк) [2013 г., фентези, детектив, BDRip-AVC] [720p] DVO [GREEN TEA]

Ответить на тему
 
Автор Сообщение

Константин Романов ®

Стаж: 3 года 2 месяца

Сообщений: 125

Пост 09-Дек-2013 17:55

[Цитировать]

Молодой Детектив Ди: Восстание Царя Драконов
Young Detective Dee: Rise of the Sea Dragon
Год выпуска: 2013
Страна: Гонконг, Китай
Жанр: фентези, детектив
Продолжительность: 2:08:48-Перевод: Двухголосый (закадровый) Ольга Гринтиева и Дмитрий Познанский-Режиссер: Цуй Харк
В ролях: Марк Чао, Анджела Бейби, Чэнь Кунь, Уильям Фэн, Дун Ху, Ким Бом, Карина Лау, Линь Гэн Синь, Цзинцзин Ма-Описание: Посреди океана огромное судно терпит крушение. Ученые не понимают, как же это могло случится, ведь в период крушения судна, не было никакого серьезного шторма или же каких-то других катаклизмов. В общем, получается, что данный случай просто невозможно объяснить. Что же все таки случилось с кораблем? Что случилось со всеми членами нашей команды? На этот сложный вопрос должен будет ответить один молодой детектив, зовут которого Ди. Для того, чтобы ответить на этот сложный и страшный вопрос, ему потребуется отправиться к месту крушения этого судна. Парень совсем не догадывается о том, что в водах океана ожило какое-то чудовище. Получается так, что это чудовище только и ждет того, чтобы на эту территорию прибыл еще один корабль. Ведь именно за счет кораблей это древнее чудовище просто питается. Чудовище сможет разрушить любой корабль...-Доп. информация: релиз группы GREEN TEA
Рип: Елена Клепкина
Перевод: Евгений Матяш и Валерия Эстонка
Тайминг: Екатерина Амальфи
Работа со звуком: Ольга Гринтиева-Качество: BDRip-AVC
Формат: MKV
Видео кодек: H.264
Аудио кодек: MP3
Видео: 1280x536, 2053 Kbps, 29,970 fps
Аудио: MP3, 192 кб/с, 2 канала, 48 Гц-

МедиаИнфо

Формат : Matroska
Версия формата : Version 2
Размер файла : 2,02 Гбайт
Продолжительность : 2 ч. 8 м.
Общий поток : 2247 Кбит/сек
Дата кодирования : UTC 2013-12-09 10:35:48
Программа кодирования : mkvmerge v5.7.0 ('The Whirlwind') built on Jul 8 2012 20:08:51
Библиотека кодирования : libebml v1.2.3 + libmatroska v1.3.0
Видео
Идентификатор : 1
Формат : AVC
Формат/Информация : Advanced Video Codec
Профиль формата : High@L3.1
Параметр CABAC формата : Да
Параметр ReFrames формата : 8 кадров
Режим смешивания : Header stripping
Идентификатор кодека : V_MPEG4/ISO/AVC
Продолжительность : 2 ч. 8 м.
Битрейт : 2053 Кбит/сек
Ширина : 1280 пикселей
Высота : 536 пикселей
Соотношение сторон : 2,40:1
Частота кадров : 29,970 кадров/сек
Цветовое пространство : YUV
Субдискретизация насыщенности : 4:2:0
Битовая глубина : 8 бит
Тип развёртки : Прогрессивная
Бит/(Пиксели*Кадры) : 0.100
Размер потока : 1,81 Гбайт (89%)
Библиотека кодирования : x264 core 130 r2273 b3065e6
Настройки программы : cabac=1 / ref=8 / deblock=1:-2:-1 / analyse=0x3:0x113 / me=umh / subme=10 / psy=1 / psy_rd=1.00:0.20 / mixed_ref=1 / me_range=24 / chroma_me=1 / trellis=2 / 8x8dct=1 / cqm=0 / deadzone=21,11 / fast_pskip=0 / chroma_qp_offset=-3 / threads=6 / lookahead_threads=1 / sliced_threads=0 / nr=0 / decimate=0 / interlaced=0 / bluray_compat=0 / constrained_intra=0 / bframes=3 / b_pyramid=2 / b_adapt=2 / b_bias=0 / direct=3 / weightb=1 / open_gop=0 / weightp=2 / keyint=250 / keyint_min=25 / scenecut=40 / intra_refresh=0 / rc_lookahead=60 / rc=2pass / mbtree=1 / bitrate=2053 / ratetol=1.0 / qcomp=0.60 / qpmin=0 / qpmax=69 / qpstep=4 / cplxblur=20.0 / qblur=0.5 / vbv_maxrate=17500 / vbv_bufsize=14000 / nal_hrd=none / ip_ratio=1.40 / aq=1:1.00
Default : Да
Forced : Нет
Аудио
Идентификатор : 2
Формат : MPEG Audio
Версия формата : Version 1
Профиль формата : Layer 3
Режим : Joint stereo
Режим смешивания : Header stripping
Идентификатор кодека : A_MPEG/L3
Идентификатор кодека/Подсказка : MP3
Продолжительность : 2 ч. 8 м.
Вид битрейта : Постоянный
Битрейт : 192 Кбит/сек
Каналы : 2 канала
Частота : 48,0 КГц
Метод сжатия : С потерями
Размер потока : 177 Мбайт (9%)
Default : Да
Forced : Нет

Скриншоты

-Альтернативная раздача 360р


Последний раз редактировалось: Константин Романов (2014-01-27 11:57), всего редактировалось 2 раз(а)
[Профиль] [ЛС]

BlackSilverUfa

Стаж: 3 года 10 месяцев

Сообщений: 3

Пост 10-Дек-2013 15:57 (спустя 22 часа)

[Цитировать]

спасибо.

_________________
[Профиль] [ЛС]

Yami no

Стаж: 3 года 1 месяц

Сообщений: 1

Пост 14-Дек-2013 11:33 (спустя 3 дня)

[Цитировать]

Спасибо! Сказка в лучших азиатских традициях! Озвучка великолепная! Спасибо за релиз и озвучку!
[Профиль] [ЛС]

miki

Стаж: 2 года 3 месяца

Сообщений: 1

Пост 28-Авг-2014 19:22 (спустя 8 месяцев 14 дней)

[Цитировать]

Как скачать или смотреть он лайнер а????
[Профиль] [ЛС]

хенкель

Стаж: 2 года 10 месяцев

Сообщений: 6

Пост 02-Сен-2014 04:26 (спустя 4 дня)

[Цитировать]

кто нибудь скачал или нет?
[Профиль] [ЛС]
Показать сообщения:    
Ответить на тему

Текущее время: Сегодня 18:28

Часовой пояс: GMT



Вы не можете начинать темы
Вы не можете отвечать на сообщения
Вы не можете редактировать свои сообщения
Вы не можете удалять свои сообщения
Вы не можете голосовать в опросах
Вы не можете прикреплять файлы к сообщениям
Вы не можете скачивать файлы