Жалобы на работу трекера ! прошу сюда :)

Молодой детектив Ди: восстание царя драконов / Young Detective Dee: Rise of the Sea Dragon (Цуй Харк) [2013 г., фентези, детектив, BDRip] [360p] DVO [GREEN TEA]

Ответить на тему
 
Автор Сообщение

Константин Романов ®

Стаж: 3 года 2 месяца

Сообщений: 125

Пост 09-Дек-2013 17:56

[Цитировать]

Молодой Детектив Ди: Восстание Царя Драконов
Young Detective Dee: Rise of the Sea Dragon
Год выпуска: 2013
Страна: Гонконг, Китай
Жанр: фентези, детектив
Продолжительность: 2:08:48-Перевод: Двухголосый (закадровый) Ольга Гринтиева и Дмитрий Познанский-Режиссер: Цуй Харк
В ролях: Марк Чао, Анджела Бейби, Чэнь Кунь, Уильям Фэн, Дун Ху, Ким Бом, Карина Лау, Линь Гэн Синь, Цзинцзин Ма-Описание: Посреди океана огромное судно терпит крушение. Ученые не понимают, как же это могло случится, ведь в период крушения судна, не было никакого серьезного шторма или же каких-то других катаклизмов. В общем, получается, что данный случай просто невозможно объяснить. Что же все таки случилось с кораблем? Что случилось со всеми членами нашей команды? На этот сложный вопрос должен будет ответить один молодой детектив, зовут которого Ди. Для того, чтобы ответить на этот сложный и страшный вопрос, ему потребуется отправиться к месту крушения этого судна. Парень совсем не догадывается о том, что в водах океана ожило какое-то чудовище. Получается так, что это чудовище только и ждет того, чтобы на эту территорию прибыл еще один корабль. Ведь именно за счет кораблей это древнее чудовище просто питается. Чудовище сможет разрушить любой корабль...-Доп. информация: релиз группы GREEN TEA
Рип: Елена Клепкина
Перевод: Евгений Матяш и Валерия Эстонка
Тайминг: Екатерина Амальфи
Работа со звуком: Ольга Гринтиева-Качество: BDRip
Формат: AVI
Видео кодек: XviD
Аудио кодек: MP3
Видео: 720x304, 1650 Kbps, 29,970 fps
Аудио: MP3, 192 кб/с, 2 канала, 48 Гц-

МедиаИнфо

Формат : AVI
Формат/Информация : Audio Video Interleave
Размер файла : 1,67 Гбайт
Продолжительность : 2 ч. 8 м.
Общий поток : 1854 Кбит/сек
Программа кодирования : VirtualDubMod 1.5.10.3 | www.virtualdub-fr.org || (build 2550/release)
Библиотека кодирования : VirtualDub build 32842/release
Видео
Идентификатор : 0
Формат : MPEG-4 Visual
Профиль формата : Advanced Simple@L5
Параметр BVOP формата : 1
Параметр QPel формата : Нет
Параметр GMC формата : Без точки перехода
Параметр матрицы формата : Выборочная
Идентификатор кодека : XVID
Идентификатор кодека/Подсказка : XviD
Продолжительность : 2 ч. 8 м.
Битрейт : 1650 Кбит/сек
Ширина : 720 пикселей
Высота : 304 пикселя
Соотношение сторон : 2,35:1
Частота кадров : 29,970 кадров/сек
Цветовое пространство : YUV
Субдискретизация насыщенности : 4:2:0
Битовая глубина : 8 бит
Тип развёртки : Прогрессивная
Метод сжатия : С потерями
Бит/(Пиксели*Кадры) : 0.252
Размер потока : 1,48 Гбайт (89%)
Библиотека кодирования : XviD 1.2.1 (UTC 2008-12-04)
Аудио
Идентификатор : 1
Формат : MPEG Audio
Версия формата : Version 1
Профиль формата : Layer 3
Режим : Joint stereo
Идентификатор кодека : 55
Идентификатор кодека/Подсказка : MP3
Продолжительность : 2 ч. 8 м.
Вид битрейта : Постоянный
Битрейт : 192 Кбит/сек
Каналы : 2 канала
Частота : 48,0 КГц
Метод сжатия : С потерями
Размер потока : 177 Мбайт (10%)
Выравнивание : Разделение по промежуткам
Продолжительность промежутка : 33 мс. (1,00 видеокадр)
Время предзагрузки промежутка : 500 мс.

Скриншоты

-Альтернативная раздача 720р


Последний раз редактировалось: Константин Романов (2014-01-27 11:57), всего редактировалось 3 раз(а)
[Профиль] [ЛС]

Dante

Стаж: 3 года 2 месяца

Сообщений: 1

Пост 09-Дек-2013 19:37 (спустя 1 час 41 минута)

[Цитировать]

Спасибо большое за Ваш труд, за интереснейшие фильмы и сериалы, за их качество иоформление
[Профиль] [ЛС]

j_777

Стаж: 3 года 9 месяцев

Сообщений: 302

Пост 10-Дек-2013 05:57 (спустя 10 часов)

[Цитировать]

Спасибо большое!!!!!!!!!!!!!!
[Профиль] [ЛС]
Показать сообщения:    
Ответить на тему

Текущее время: Сегодня 20:03

Часовой пояс: GMT



Вы не можете начинать темы
Вы не можете отвечать на сообщения
Вы не можете редактировать свои сообщения
Вы не можете удалять свои сообщения
Вы не можете голосовать в опросах
Вы не можете прикреплять файлы к сообщениям
Вы не можете скачивать файлы