Жалобы на работу трекера ! прошу сюда :)

Особая личность / Dak siu san fan (Кларенс Фок Ииу-леунг) [2013 г., боевик, триллер, криминал]

Ответить на тему
 
Автор Сообщение

dusy78 ®

Стаж: 3 года 10 месяцев

Сообщений: 1005

Откуда: Россия

Пост 18-Дек-2013 12:56

[Цитировать]

Особая личность / Dak siu san fan
Год выпуска: 2013
Страна: Китай, Гонконг
Жанр: боевик, триллер, криминал
Продолжительность: 01:38
Озвучивание: Ольга Гринтиева и Дмитрий Познанский
Режиссер: Кларенс Фок Ииу-леунг
В ролях:
Донни Ен
Энди Он
Тянь Цзин
Рональд Чэн
Колин Чоу
Теренс Йин
Чжиган Ян
Чжан Ханьюй
Хи Чинг Пав
Чеунг-Чинг Мак
Описание:
Чень Цзылун - сотрудник полиции под прикрытием, глубоко внедрившийся в ряды одной из самых жестоких банд Китая. Чен Мао Сюн, главный босс этой банды, который не доверяет никому. Убили одного из его людей и убийца- один из бывших ребят Чень Цзылуна. Босс Сюн отправляет Цзылуна к этому убийце. Точно такое же задание Цзылун получает и от полиции. Oн приступает к заданию, даже не подозревая, что Чен Мао Сюн уже знает, что oн сотрудник полиции под прикрытием. *Эльза Нордж
Доп. информация:
Релиз: группа GREEN TEA
Перевод: Эльза Нордж
Работа со звуком: Ольга Гринтиева

Оформление постера: NovA_JKE
Формат: MKV
Видео кодек: MPEG4
Аудио кодек: AC3
Видео: Matroska, 1 850 Kbps, 720х368, 23.976 fps
Аудио: AC-3, 192 Kbps, 48.0 KHz, RUS(int)

Скриншоты

Медиаинфо

Video
ID : 1
Format : AVC
Format/Info : Advanced Video Codec
Format profile : High@L4.1
Format settings, CABAC : Yes
Format settings, ReFrames : 5 frames
Muxing mode : Header stripping
Codec ID : V_MPEG4/ISO/AVC
Duration : 1h 38mn
Bit rate : 1 850 Kbps
Width : 720 pixels
Height : 368 pixels
Display aspect ratio : 1.957
Frame rate mode : Constant
Frame rate : 23.976 fps
Color space : YUV
Chroma subsampling : 4:2:0
Bit depth : 8 bits
Scan type : Progressive
Bits/(Pixel*Frame) : 0.291
Stream size : 1.25 GiB (89%)
Writing library : x264 core 133 r2334 a3ac64b
Audio
ID : 2
Format : AC-3
Format/Info : Audio Coding 3
Mode extension : CM (complete main)
Format settings, Endianness : Big
Muxing mode : Header stripping
Codec ID : A_AC3
Duration : 1h 38mn
Bit rate mode : Constant
Bit rate : 192 Kbps
Channel(s) : 2 channels
Channel positions : Front: L R
Sampling rate : 48.0 KHz
Bit depth : 16 bits
Compression mode : Lossy
Stream size : 136 MiB (9%)
Default : Yes
Forced : No


Последний раз редактировалось: dusy78 (2013-12-30 02:15), всего редактировалось 1 раз
[Профиль] [ЛС]

CrimsonAndrew

Стаж: 3 года

Сообщений: 1

Пост 18-Дек-2013 14:39 (спустя 1 час 43 минуты)

[Цитировать]

Ольга Гринтиева и Дмитрий Познанский
Век бы вам не расставаться. Спасибо команде за труды.
[Профиль] [ЛС]

Han_rey

Стаж: 2 года 11 месяцев

Сообщений: 5

Пост 19-Дек-2013 12:41 (спустя 22 часа)

[Цитировать]

Спасибо огромное, ребята!!! Очень оперативно! Не ждал так быстро. :)
[Профиль] [ЛС]

Nospamws

Стаж: 3 года 10 месяцев

Сообщений: 17

Пост 19-Дек-2013 14:46 (спустя 2 часа 4 минуты)

[Цитировать]

О нормас Донни Ен
спс за релиз
[Профиль] [ЛС]

Nusechka

Стаж: 3 года 9 месяцев

Сообщений: 8

Пост 19-Дек-2013 16:00 (спустя 1 час 13 минут)

[Цитировать]

bp Донни Ен aj
[Профиль] [ЛС]

Nospamws

Стаж: 3 года 10 месяцев

Сообщений: 17

Пост 19-Дек-2013 16:50 (спустя 49 минут)

[Цитировать]

Что-то фильм на тройку... ждал от Донни Ена много красивой борьбы но увидел только одну в середине фильма...
[Профиль] [ЛС]

NovA_JKE

Стаж: 3 года

Сообщений: 1

Пост 25-Дек-2013 22:02 (спустя 6 дней)

[Цитировать]

да не, норм боевка. Тянь Цзин порадовала)

_________________
[Профиль] [ЛС]

Quest

Стаж: 2 года 11 месяцев

Сообщений: 2

Пост 01-Янв-2014 11:29 (спустя 6 дней)

[Цитировать]

пожалуйста сделайте качество получше уже есть много рипов
[Профиль] [ЛС]

WSmit60

Стаж: 2 года 4 месяца

Сообщений: 1

Пост 21-Мар-2015 18:04 (спустя 1 год 2 месяца)

[Цитировать]

тут звук со скринера??? а получше нет случайно?
[Профиль] [ЛС]
Показать сообщения:    
Ответить на тему

Текущее время: Сегодня 04:10

Часовой пояс: GMT



Вы не можете начинать темы
Вы не можете отвечать на сообщения
Вы не можете редактировать свои сообщения
Вы не можете удалять свои сообщения
Вы не можете голосовать в опросах
Вы не можете прикреплять файлы к сообщениям
Вы не можете скачивать файлы