Жалобы на работу трекера ! прошу сюда :)

Дворец / The Palace (Anzi Pan) [2013 г., Драма, романтика, исторический]

Ответить на тему
 
Автор Сообщение

Valerius Kafa ®

Стаж: 3 года 2 месяца

Сообщений: 79

Пост 23-Янв-2014 19:01

[Цитировать]

Дворец / The Palace
Год выпуска: 2013
Страна: Китай
Жанр: Драма, романтика, исторический
Продолжительность: 115 минут
Перевод: Двухголосый закадровый Ольга Гринтиева и Валерий Феодосов
Режиссер: Anzi Pan
В ролях: # Чжоу Дун Сюэ (Zhou Dong Xue ) - Чжаоцзя Чэнь Сян
# Чэнь Сяо (Chen Xiao) - 13-й принц Иньсян
# Лу И (Lu Yi) - 4-й принц Иньчжэнь
# Чжу Цзы Сяо (Zhu Zi Xiao) - 9й- принц
# Чжао Ли Ин (Zhao Li Ying) - Лю Ли
# Дикки Чунг - главный евнух
# Чжао Вэнь Сюань (Zhao Wen Xuan) - император Канси
Описание: Чэнь Сян и Лю Ли в свои 12 лет попадают во дворец в качестве служанок, любую из них в любой момент может приметить император или принцы и тогда их ждёт сладкая жизнь наложницы или супруги. Они становятся подругами и дружба их длится ровно до момента, когда им приходится делить 13-го принца.
Это, своего рода, спинофф сериала Дворец. История любви 13-го принца и Чэнь Сян. Любовь, интриги, предательства и разлуки.
Доп. информация:
Релиз группы GREEN TEA
Рип: Елена Клепкина
Оформление постера: Елена Горбункова
Работа со звуком: Ольга Гринтиева
Качество: HDTVRip
Формат: MKV
Видео кодек: Другой MPEG4
Аудио кодек: AC3
Видео: MPEG4 Video 1 280х544
Аудио: AAC 48000Hz stereo

MediaInfo

Format : Matroska
Format version : Version 4 / Version 2
File size : 1.88 GiB
Duration : 1h 50mn
Overall bit rate : 2 444 Kbps
Encoded date : UTC 2014-01-24 08:39:22
Writing application : mkvmerge v6.0.0 ('Coming Up For Air') built on Jan 20 2013 09:52:00
Writing library : libebml v1.3.0 + libmatroska v1.4.0
Video
ID : 1
Format : AVC
Format/Info : Advanced Video Codec
Format profile : High@L4.1
Format settings, CABAC : Yes
Format settings, ReFrames : 8 frames
Codec ID : V_MPEG4/ISO/AVC
Duration : 1h 50mn
Bit rate : 2 250 Kbps
Width : 1 280 pixels
Height : 544 pixels
Display aspect ratio : 2.35:1
Frame rate : 25.000 fps
Color space : YUV
Chroma subsampling : 4:2:0
Bit depth : 8 bits
Scan type : Progressive
Bits/(Pixel*Frame) : 0.129
Stream size : 1.69 GiB (90%)
Title : The Palace (2013) HDRip 720p
Writing library : x264 core 130 r2273 b3065e6
Encoding settings : cabac=1 / ref=8 / deblock=1:-1:-1 / analyse=0x3:0x113 / me=umh / subme=9 / psy=1 / psy_rd=1.00:0.00 / mixed_ref=1 / me_range=32 / chroma_me=1 / trellis=1 / 8x8dct=1 / cqm=0 / deadzone=21,11 / fast_pskip=1 / chroma_qp_offset=-2 / threads=6 / lookahead_threads=1 / sliced_threads=0 / nr=0 / decimate=1 / interlaced=0 / bluray_compat=0 / constrained_intra=0 / bframes=3 / b_pyramid=2 / b_adapt=2 / b_bias=0 / direct=1 / weightb=1 / open_gop=0 / weightp=2 / keyint=25 / keyint_min=1 / scenecut=40 / intra_refresh=0 / rc_lookahead=25 / rc=2pass / mbtree=1 / bitrate=2250 / ratetol=1.0 / qcomp=0.60 / qpmin=10 / qpmax=51 / qpstep=4 / cplxblur=20.0 / qblur=0.5 / ip_ratio=1.40 / aq=1:1.00
Language : English
Default : Yes
Forced : No
Audio
ID : 2
Format : AC-3
Format/Info : Audio Coding 3
Mode extension : CM (complete main)
Codec ID : A_AC3
Duration : 1h 50mn
Bit rate mode : Constant
Bit rate : 192 Kbps
Channel(s) : 2 channels
Channel positions : Front: L R
Sampling rate : 48.0 KHz
Bit depth : 16 bits
Compression mode : Lossy
Stream size : 151 MiB (8%)
Default : Yes
Forced : No

Скриншоты






_________________
Подпись отключена за нарушение правил форума


Последний раз редактировалось: Valerius Kafa (2014-01-30 18:06), всего редактировалось 7 раз(а)
[Профиль] [ЛС]

Hencok

Стаж: 3 года 1 месяц

Сообщений: 18

Откуда: Киев

Пост 24-Янв-2014 20:54 (спустя 1 день 1 час)

[Цитировать]

Спасибо, поглядим %)
[Профиль] [ЛС]

rodqer

Стаж: 3 года 10 месяцев

Сообщений: 417

Откуда: кемерово

Пост 29-Янв-2014 16:03 (спустя 4 дня)

[Цитировать]

спасибо)))))))
[Профиль] [ЛС]

rodqer

Стаж: 3 года 10 месяцев

Сообщений: 417

Откуда: кемерово

Пост 30-Янв-2014 11:44 (спустя 19 часов)

[Цитировать]

фильм потрясающий , озвучка лучшая , вы молодцы еще раз спасибо огромное))))))
[Профиль] [ЛС]

victoria

Стаж: 3 года 1 месяц

Сообщений: 12

Пост 13-Апр-2014 18:39 (спустя 2 месяца 14 дней)

[Цитировать]

Прекрасный фильм, очень интересный и трогательный, соскучилась я по таким произведениям. Спасибо большое за то, что дали насладится этим чудом, Вы - лучшие!
[Профиль] [ЛС]

Auberto

Стаж: 3 года

Сообщений: 14

Пост 12-Июн-2014 10:18 (спустя 1 месяц 28 дней)

[Цитировать]

Замечательный фильм о любви и верности. Всем советую!
[Профиль] [ЛС]

Ка Тян

Стаж: 2 года 2 месяца

Сообщений: 12

Пост 06-Июл-2015 06:42 (спустя 1 год)

[Цитировать]

ААА!!! Хотела скачать фильм, показать подруге, а полного источника не было в сети 56 минут... АААА!!! НЕЕЕЕТ ((((((((
[Профиль] [ЛС]
Показать сообщения:    
Ответить на тему

Текущее время: Сегодня 22:09

Часовой пояс: GMT



Вы не можете начинать темы
Вы не можете отвечать на сообщения
Вы не можете редактировать свои сообщения
Вы не можете удалять свои сообщения
Вы не можете голосовать в опросах
Вы не можете прикреплять файлы к сообщениям
Вы не можете скачивать файлы