Жалобы на работу трекера ! прошу сюда :)

Легенда о лисе / Legend of the fox (Чанг Че) [1980 г., HDTVRip]

Ответить на тему
 
Автор Сообщение

Valerius Kafa ®

Стаж: 3 года 1 месяц

Сообщений: 79

Пост 15-Фев-2014 12:00

[Цитировать]

Легенда о лисе
Legend of the fox


Год выпуска: 1980
Страна: Китай
Продолжительность: 122 минуты
Перевод: Одноголосый закадровый Валерий Феодосов
Режиссер: Чанг Че
В ролях: Стивен Чан Юнг
Шу Чи Чан
Юнг Чан
Han-kuang Chen
Хунг Чен
Шенг Чианг
Чин Сиу Хоу
Кин Пинг Чоу
Линда Чу
Минг Фанг
Описание:
Мастер меча Ху Идао (Лу Фенг) принимает вызов от непобедимого бойца Мяо Ренфенга (Филлип Квок) – бой должен быть не на жизнь, а на смерть. Соперники сражаются несколько дней, но ни один не может одержать верх, и тогда коварный помощник Ренфенга, Тьян Гуйнон (Чианг Шенг) тайно наносит на лезвия мечей яд, что кончается смертью Ху от малюсенькой царапины. Проходят годы, сын Идао, Ху Фей (Чин Сиу-Хо) вырастает в мастера, и главная цель в его жизни – отомстить за отца…
Доп. информация:
Перевод: Марина Торлин
Релиз группы GREEN TEA
Оформление постера: Елена Горборукова
Работа со звуком: Ольга Гритиева
Качество: HDTVRip
Формат: AVI
Видео кодек: Другой MPEG4
Аудио кодек: MP3
Видео: MPEG4 608х272
Аудио: МР3 48000Hz stereo

MediaInfo

D:\Green Tea\Legend of the Fox.avi
General
Complete name : D:\Green Tea\Legend of the Fox.avi
Format : AVI
Format/Info : Audio Video Interleave
File size : 703 MiB
Duration : 2h 2mn
Overall bit rate : 801 Kbps
Writing application : VirtualDubMod 1.5.10.3 (build 2550/release)
Writing library : VirtualDub build 35486/release
Video #0
ID : 0
Format : MPEG-4 Visual
Format profile : Advanced Simple@L5
Format settings, BVOP : 1
Format settings, QPel : No
Format settings, GMC : No warppoints
Format settings, Matrix : Custom
Codec ID : XVID
Codec ID/Hint : XviD
Duration : 2h 2mn
Bit rate : 597 Kbps
Width : 608 pixels
Height : 272 pixels
Display aspect ratio : 2.25:1
Frame rate : 29.970 fps
Color space : YUV
Chroma subsampling : 4:2:0
Bit depth : 8 bits
Scan type : Progressive
Compression mode : Lossy
Bits/(Pixel*Frame) : 0.120
Stream size : 524 MiB (75%)
Writing library : XviD 64
Audio #1
ID : 1
Format : MPEG Audio
Format version : Version 1
Format profile : Layer 3
Mode : Joint stereo
Codec ID : 55
Codec ID/Hint : MP3
Duration : 2h 2mn
Bit rate mode : Constant
Bit rate : 192 Kbps
Channel(s) : 2 channels
Sampling rate : 48.0 KHz
Compression mode : Lossy
Stream size : 168 MiB (24%)
Alignment : Split accross interleaves
Interleave, duration : 33 ms (1.00 video frame)
Interleave, preload duration : 500 ms

Скриншоты



_________________
Подпись отключена за нарушение правил форума
[Профиль] [ЛС]

another

Стаж: 3 года 1 месяц

Сообщений: 24

Пост 06-Июн-2014 14:27 (спустя 3 месяца 19 дней)

[Цитировать]

Исправьте пожалуйста: Страна: Ктай
[Профиль] [ЛС]
Показать сообщения:    
Ответить на тему

Текущее время: Сегодня 09:37

Часовой пояс: GMT



Вы не можете начинать темы
Вы не можете отвечать на сообщения
Вы не можете редактировать свои сообщения
Вы не можете удалять свои сообщения
Вы не можете голосовать в опросах
Вы не можете прикреплять файлы к сообщениям
Вы не можете скачивать файлы