Жалобы на работу трекера ! прошу сюда :)

Лан Квай Фонг 3 / Lan Kwai Fong 3 (Wilson Chin/Уилсон Чин) [2014 г., Мелодрама, эротика] [360] [RAW]

Ответить на тему
 
Автор Сообщение

dusy78 ®

Стаж: 3 года 10 месяцев

Сообщений: 1005

Откуда: Россия

Пост 18-Июн-2014 19:30

[Цитировать]

Лан Квай Фонг 3 / Lan Kwai Fong 3
Год выпуска: 2014
Страна: Гонконг
Жанр: Мелодрама, эротика
Продолжительность: 01:36:43
Озвучивание: Екатерина Юрьева и Макс Коллапс
СЕМПЛ: https://yadi.sk/d/6ugclx88TxYW7
Режиссер: Wilson Chin / Уилсон Чин
В ролях:
Dada Chan
Pak-yu Chan
Andrew Dasz
Jeana Ho
Whitney Hui
Celia Kwok
Chi-Sing Lam
Ava Liu
Christine Ng
Описание: Люди встречаются, люди влюбляются... женятся. Далеко не у всех отношений хэппи энд в виде Марша Мендельсона. В основе фильма лежат несколько историй: одни живут вместе несколько лет и уже подумывают о свадьбе, а другие только в начале пути и ищут свою вторую половинку. Но всех этих людей связывает одно - любовь к отдыху и развлечениям в ночном клубе. Улица Лан Квай Фонг, дом номер 3 - здесь всё начнётся и посмотрим, чем это закончится... (Мария Беликова)
Доп. информация:
Релиз: группа "GREEN TEA"
Перевод: Мария Беликова
Редакция: Виктория Широкова
Работа со звуком: Ольга Гринтиева
Оформление постера: Дина Фаткуллина
Формат: AVI
Аудио кодек: MP3
Видео: H264; 1 300 Kbps; 720х308; 24.000 fps
Аудио: 192 Kbps; 48.0 KHz; 2 channels
ФИЛЬМ ПРЕДНАЗНАЧЕН ДЛЯ ЛИЦ СТАРШЕ 18+
Альтернативная раздача 1280х548

MediaInfo

General
Complete name : C:\Users\Дина\Downloads\Lan.Kwai.Fong.3.2014.BluRay.720p.x264.DTS.DD.5.1.2Audio-HDWinG\[GREEN TEA] Лан Квай Фонг 3_360.avi
Format : AVI
Format/Info : Audio Video Interleave
File size : 1 010 MiB
Duration : 1h 33mn
Overall bit rate : 1 505 Kbps
Writing application : Lavf54.63.104
Video
ID : 0
Format : AVC
Format/Info : Advanced Video Codec
Format profile : High@L3.0
Format settings, CABAC : Yes
Format settings, ReFrames : 2 frames
Codec ID : H264
Duration : 1h 33mn
Bit rate : 1 300 Kbps
Width : 720 pixels
Height : 308 pixels
Display aspect ratio : 2.35:1
Frame rate mode : Variable
Frame rate : 24.000 fps
Color space : YUV
Chroma subsampling : 4:2:0
Bit depth : 8 bits
Scan type : Progressive
Bits/(Pixel*Frame) : 0.244
Stream size : 873 MiB (86%)
Writing library : x264 core 129
Encoding settings : cabac=1 / ref=2 / deblock=1:0:0 / analyse=0x3:0x113 / me=hex / subme=6 / psy=1 / psy_rd=1.00:0.00 / mixed_ref=1 / me_range=16 / chroma_me=1 / trellis=0 / 8x8dct=1 / cqm=0 / deadzone=21,11 / fast_pskip=1 / chroma_qp_offset=-2 / threads=2 / lookahead_threads=1 / sliced_threads=0 / nr=0 / decimate=1 / interlaced=0 / bluray_compat=0 / constrained_intra=0 / bframes=0 / weightp=2 / keyint=250 / keyint_min=25 / scenecut=40 / intra_refresh=0 / rc_lookahead=40 / rc=2pass / mbtree=1 / bitrate=1300 / ratetol=1.0 / qcomp=0.60 / qpmin=10 / qpmax=51 / qpstep=4 / cplxblur=20.0 / qblur=0.5 / ip_ratio=1.41 / aq=1:1.00
Audio
ID : 1
Format : MPEG Audio
Format version : Version 1
Format profile : Layer 3
Mode : Joint stereo
Codec ID : 55
Codec ID/Hint : MP3
Duration : 1h 33mn
Bit rate mode : Constant
Bit rate : 192 Kbps
Channel(s) : 2 channels
Sampling rate : 48.0 KHz
Compression mode : Lossy
Stream size : 129 MiB (13%)
Alignment : Aligned on interleaves
Interleave, duration : 24 ms (0.58 video frame)
[Профиль] [ЛС]
Показать сообщения:    
Ответить на тему

Текущее время: Сегодня 02:00

Часовой пояс: GMT



Вы не можете начинать темы
Вы не можете отвечать на сообщения
Вы не можете редактировать свои сообщения
Вы не можете удалять свои сообщения
Вы не можете голосовать в опросах
Вы не можете прикреплять файлы к сообщениям
Вы не можете скачивать файлы