Жалобы на работу трекера ! прошу сюда :)

Раскрашенная кожа 2: Воскрешение / Painted Skin: The Resurrection / Hua Pi 2 (Wuershan) [2012, фэнтези, боевик, триллер, драма, BDRip] [RAW] [304p] MVO GREEN TEA

Ответить на тему
 
Автор Сообщение

Klёпa ®

Стаж: 3 года 1 месяц

Сообщений: 906

Пост 12-Окт-2014 00:24

[Цитировать]

Раскрашенная кожа 2: Воскрешение
Painted Skin: The Resurrection / Hua Pi 2

Год выпуска: 2012
Страна: Китай
Жанр: фэнтези, боевик, триллер, драма
Продолжительность: 02:11:32-Перевод: Многоголосый(закадровый) Fi.Re, Catastrophe, Ustas Alexis, Ульяна Громова
Сэмпл: https://yadi.sk/i/gGK3t9y_bwf6f-
Режиссер: Вуэршан (Wuershan)
В ролях:
Чжоу Сюнь (Zhou Xun) - Лисица
Кунь Чэнь (Kun Chen) - Воин
Викки Чжао (Zhao Wei) - Принцесса
Мини Ян (Mini Yang) - Птица
Фэн Шаофэн (Feng Shaofeng) - охотник на демонов
Тинцзя Чэнь (Tingjia Chen) - королева-Описание:
Чтобы стать смертным, демон должен прожить на Земле несколько сот лет, но и этого недостаточно, чтобы ощутить весь спектр человеческих эмоций и подлинную экзистенциальную грусть. Для получения этих бонусов демон должен найти человека, готового пожертвовать собственными чувствами и собственной бессмертной душой.-Доп. информация:
Релиз подготовлен группой "GREEN TEA"
Перевод: Den Shark
Редакция под озвучку: Хичкок
Рип: Андрей Буреев
Оформление постера: Дина Фаткуллина-Качество: BDRip
Формат: AVI
Видео кодек: XviD
Аудио кодек: AC3
Видео: 720x304 (2.35:1), 1911 Кбит/с, 23.976 fps
Аудио: 48 kHz, 448 Кбит/сек, 6 каналов

MediaInfo

Код:
General
Format                                   : AVI
Format/Info                              : Audio Video Interleave
Format profile                           : OpenDML
File size                                : 2.18 GiB
Duration                                 : 2h 11mn
Overall bit rate                         : 2 371 Kbps
Writing application                      : VirtualDubMod 1.5.10.2 (build 2540/release)
Writing library                          : VirtualDubMod build 2540/release
Video
ID                                       : 0
Format                                   : MPEG-4 Visual
Format profile                           : Advanced Simple@L5
Format settings, BVOP                    : 1
Format settings, QPel                    : No
Format settings, GMC                     : No warppoints
Format settings, Matrix                  : Custom
Codec ID                                 : XVID
Codec ID/Hint                            : XviD
Duration                                 : 2h 11mn
Bit rate                                 : 1 911 Kbps
Width                                    : 720 pixels
Height                                   : 304 pixels
Display aspect ratio                     : 2.35:1
Frame rate                               : 23.976 fps
Color space                              : YUV
Chroma subsampling                       : 4:2:0
Bit depth                                : 8 bits
Scan type                                : Progressive
Compression mode                         : Lossy
Bits/(Pixel*Frame)                       : 0.364
Stream size                              : 1.76 GiB (81%)
Writing library                          : XviD 72
Audio
ID                                       : 1
Format                                   : AC-3
Format/Info                              : Audio Coding 3
Mode extension                           : CM (complete main)
Format settings, Endianness              : Big
Codec ID                                 : 2000
Duration                                 : 2h 11mn
Bit rate mode                            : Constant
Bit rate                                 : 448 Kbps
Channel(s)                               : 6 channels
Channel positions                        : Front: L C R, Side: L R, LFE
Sampling rate                            : 48.0 KHz
Bit depth                                : 16 bits
Compression mode                         : Lossy
Stream size                              : 422 MiB (19%)
Alignment                                : Split accross interleaves
Interleave, duration                     : 42 ms (1.00 video frame)
Interleave, preload duration             : 500 ms

Скриншоты


[Профиль] [ЛС]
Показать сообщения:    
Ответить на тему

Текущее время: Сегодня 09:38

Часовой пояс: GMT



Вы не можете начинать темы
Вы не можете отвечать на сообщения
Вы не можете редактировать свои сообщения
Вы не можете удалять свои сообщения
Вы не можете голосовать в опросах
Вы не можете прикреплять файлы к сообщениям
Вы не можете скачивать файлы