Жалобы на работу трекера ! прошу сюда :)

Братство клинков / Bu Zai Chen Shui / Brotherhood of Blades (Ян Лу) [2014, костюмированая драма, экшн, WEBRip] [RAW] [304p] DVO GREEN TEA

Ответить на тему
 
Автор Сообщение

Klёпa ®

Стаж: 3 года 2 месяца

Сообщений: 906

Пост 16-Окт-2014 23:40

[Цитировать]

Братство клинков
Brotherhood of Blades / Bu Zai Chen Shui

Год выпуска: 2014
Страна: Китай
Жанр: экшн, костюмированная драма
Продолжительность: 01:47:06-Перевод двухголосый (закадровый): Дмитрий Познанский и Елена Егорова
Сэмпл: https://yadi.sk/-Режиссер: Ян Лу (Yang Lu / 路阳)
В ролях:
Чан Чэнь (Chang Chen / 张震)
Ван Цяньюань (Wang Qian Yuan / 王千源)
Не Юань (Nie Yuan / 聂远)
Итан Ли (Ethan Li / 李东学)
Сесилия Лю (Cecilia Liu / 刘诗诗)
Цзинь Шицзие (Jin Shi Jye / 金士杰)
Чжоу Ивэй (Zhou Yi Wei / 周一围)
Цин Е (Qing Ye / 叶青)
Чжу Дань (Zhu Dan / 朱丹)
Чжао Лисинь (Zhao Lixin / 赵立新)
и др.-Описание:
Династия Мин, три друга, которые служат в Цзиньивей, отправляются на поиски политика Вэй Чжунсяня, который был вынужден покинуть свой пост и бежать из Пекина. Они легко справляются со своей задачей, и возвращаются в Цзиньивей. Там они понимают, что впутаны в тайный заговор, и спасение политика это только начало...-Доп. информация:
Релиз подготовлен группой GREEN TEA
Перевод: Виктория Широкова
Оформление постера: Елена Горборукова
Работа со звуком: Ольга Гринтиева-Качество: WEBRip
Формат: AVI
Видео кодек: XviD
Аудио кодек: MP3
Видео: 720х304, 972 Кбит/с, 25 fps
Аудио: 48 kHz, 128 Кбит/c, 2 канала
!!! Альтернативная раздача: 720p (AVI, H264)

MediaInfo

Код:
General
Format                                   : AVI
Format/Info                              : Audio Video Interleave
File size                                : 744 MiB
Duration                                 : 1h 47mn
Overall bit rate                         : 972 Kbps
Writing application                      : VirtualDubMod 1.5.10.3 | www.virtualdub-fr.org || (build 2550/release)
Writing library                          : VirtualDubMod build 2550/release
Video
ID                                       : 0
Format                                   : MPEG-4 Visual
Format profile                           : Advanced Simple@L5
Format settings, BVOP                    : 2
Format settings, QPel                    : No
Format settings, GMC                     : No warppoints
Format settings, Matrix                  : Default (H.263)
Codec ID                                 : XVID
Codec ID/Hint                            : XviD
Duration                                 : 1h 47mn
Bit rate                                 : 834 Kbps
Width                                    : 720 pixels
Height                                   : 304 pixels
Display aspect ratio                     : 2.35:1
Frame rate                               : 25.000 fps
Color space                              : YUV
Chroma subsampling                       : 4:2:0
Bit depth                                : 8 bits
Scan type                                : Progressive
Compression mode                         : Lossy
Bits/(Pixel*Frame)                       : 0.152
Stream size                              : 639 MiB (86%)
Writing library                          : XviD 1.2.1 (UTC 2008-12-04)
Audio
ID                                       : 1
Format                                   : MPEG Audio
Format version                           : Version 1
Format profile                           : Layer 3
Codec ID                                 : 55
Codec ID/Hint                            : MP3
Duration                                 : 1h 47mn
Bit rate mode                            : Constant
Bit rate                                 : 128 Kbps
Channel(s)                               : 2 channels
Sampling rate                            : 48.0 KHz
Compression mode                         : Lossy
Stream size                              : 98.0 MiB (13%)
Alignment                                : Aligned on interleaves
Interleave, duration                     : 40 ms (1.00 video frame)
Interleave, preload duration             : 504 ms
Writing library                          : LAME3.99r
Encoding settings                        : -m s -V 4 -q 0 -lowpass 17 -b 128

Скриншоты


[Профиль] [ЛС]
Показать сообщения:    
Ответить на тему

Текущее время: Сегодня 14:09

Часовой пояс: GMT



Вы не можете начинать темы
Вы не можете отвечать на сообщения
Вы не можете редактировать свои сообщения
Вы не можете удалять свои сообщения
Вы не можете голосовать в опросах
Вы не можете прикреплять файлы к сообщениям
Вы не можете скачивать файлы