Жалобы на работу трекера ! прошу сюда :)

Наездники храма Шаолинь / The Raiders of the Shaolin Temple (Fang Hao) [1982, кунг-фу, боевик, TVRip] [RAW] [480p] VO GREEN TEA

Ответить на тему
 
Автор Сообщение

Klёпa ®

Стаж: 3 года 2 месяца

Сообщений: 906

Пост 21-Окт-2014 08:55

[Цитировать]

Наездники храма Шаолинь
The Raiders of the Shaolin Temple

Год выпуска: 1982
Страна: Тайвань
Жанр: кунг-фу, боевик
Продолжительность: 01:29:08-Перевод: одноголосый (закадровый) Ustas Alexis
Сэмпл: https://yadi.sk/-
Режиссер: Фэнг Хао (Fang Hao)
В ролях: Сонни Ю, Вэй Пинао, Йинг Бай, Сиу-Панг Чан, Фрэнки Шум, Джеки Конн и др.-Описание:
Малыш Лу присматривает за лошадьми и мечтает овладеть техникой кунг-фу. Двое покалеченных Мастеров, выживших в легендарном тренировочном зале Храма Шаолинь, берутся обучить талантливого Лу кунг-фу. Они раскрывают перед ним тайну забытой техники 24 Бронзовых Коней. В это время на Шаолиньский монастырь нападает власть династии Чин. Только Малыш Лу, овладев техникой кунг-фу и победив всех Бронзовых Коней сможет спасти Шаолинь от верной гибели...-Доп. информация:
Релиз подготовлен группой "GREEN TEA"
Перевод: Demonia13
Оформление постера: NovA_JKE-Качество: TVRip
Формат: AVI
Видео кодек: XviD
Аудио кодек: MP3
Видео: 640x480 (4:3), 896 Kbps, 25.0 fps
Аудио: 48 kHz, 192 Kbps, 2 channels

MediaInfo

Код:
General
Format                                   : AVI
Format/Info                              : Audio Video Interleave
File size                                : 700 MiB
Duration                                 : 1h 29mn
Overall bit rate                         : 1 098 Kbps
Video
ID                                       : 0
Format                                   : MPEG-4 Visual
Format profile                           : Simple@L3
Format settings, BVOP                    : No
Format settings, QPel                    : No
Format settings, GMC                     : No warppoints
Format settings, Matrix                  : Default (H.263)
Codec ID                                 : XVID
Codec ID/Hint                            : XviD
Duration                                 : 1h 29mn
Bit rate                                 : 896 Kbps
Width                                    : 640 pixels
Height                                   : 480 pixels
Display aspect ratio                     : 4:3
Frame rate                               : 25.000 fps
Color space                              : YUV
Chroma subsampling                       : 4:2:0
Bit depth                                : 8 bits
Scan type                                : Progressive
Compression mode                         : Lossy
Bits/(Pixel*Frame)                       : 0.117
Stream size                              : 571 MiB (82%)
Writing library                          : XviD 0.0.09 (UTC 2003-03-25)
Audio
ID                                       : 1
Format                                   : MPEG Audio
Format version                           : Version 1
Format profile                           : Layer 3
Codec ID                                 : 55
Codec ID/Hint                            : MP3
Duration                                 : 1h 29mn
Source duration                          : 1h 29mn
Bit rate mode                            : Constant
Bit rate                                 : 192 Kbps
Channel(s)                               : 2 channels
Sampling rate                            : 48.0 KHz
Compression mode                         : Lossy
Stream size                              : 122 MiB (17%)
Alignment                                : Aligned on interleaves
Interleave, duration                     : 40 ms (1.00 video frame)
Writing library                          : LAME3.98r
Encoding settings                        : -m s -V 4 -q 3 -lowpass 18.6 -b 192

Скриншоты

[Профиль] [ЛС]
Показать сообщения:    
Ответить на тему

Текущее время: Сегодня 22:13

Часовой пояс: GMT



Вы не можете начинать темы
Вы не можете отвечать на сообщения
Вы не можете редактировать свои сообщения
Вы не можете удалять свои сообщения
Вы не можете голосовать в опросах
Вы не можете прикреплять файлы к сообщениям
Вы не можете скачивать файлы