Жалобы на работу трекера ! прошу сюда :)

Моя дерзкая девчонка 2 / My Sassy Girl 2 (Joe Ma) [2010, романтическая комедия, DVDRip] [RAW] [420p] DVO GREEN TEA

Ответить на тему
 
Автор Сообщение

Klёпa ®

Стаж: 3 года 2 месяца

Сообщений: 906

Пост 22-Окт-2014 16:41

[Цитировать]

Моя дерзкая девчонка 2
My Sassy Girl 2 / Wo De Ye Man Nu You 2


Год выпуска: 2010
Страна: Китай
Жанр: романтическая комедия
Продолжительность: 01:26:14-Перевод: двухгоголосый (закадровый) mi24, pandora2177
Сэмпл: https://yadi.sk/-
Режиссер: Джо Ма (Joe Ma)
В ролях:
Lynn Hung, Leong Jay Williams, Bosco Wong, Abby Feng, He Jiong, Sookie Pan, Benz Hui
и др.-Описание:
Этот сиквел снят по мотивам популярной в Корее в 2001 романтической комедии.
Jianyu (Leon Jay Williams) бросила девушка и поэтому он пытается покончить с собой, но, к счастью, его спасает красавица Shangzhen (Lynn Hung), после чего просит молодого человека помочь ей сорвать свадьбу своего бывшего жениха Yang Guo (Bosco Wong). Jianyu обещает помочь, но тут, на месте милого и прекрасного ангела (каким казалась девушка до сих пор) появляется личность с садистскими наклонностями и властным характером! Помимо этого, Shangzhen просит помощи у своей сестры Yongzhen (Abby Feng) - тренера таэквондо, и ее друга, дизайнера нижнего белья, Zhikai (He Jiong).
И хотя Shangzhen превращает жизнь нашего героя в сущий ад, он прекрасно понимает, что она ведет себя так из-за того, что ее сердце разбито... парень начинает влюбляться в нее... © olun4uk-Доп. информация:
Релиз подготовлен группой "GREEN TEA"
Перевод: KingFisheR22
Оформление постера: NovA_JKE-Качество: DVDRip
Формат: AVI
Видео кодек: XviD
Аудио кодек: MP3
Видео: 704x288 (16:9), 1931 Кбит/с, 25.00 fps
Аудио: 44.1 kHz, 192 Кбит/сек, 2 каналов

MediaInfo

Код:
General
Format                                   : AVI
Format/Info                              : Audio Video Interleave
File size                                : 1.28 GiB
Duration                                 : 1h 26mn
Overall bit rate                         : 2 133 Kbps
Writing application                      : VirtualDubMod 1.5.10.2 (build 2540/release)
Writing library                          : VirtualDubMod build 2540/release
Video
ID                                       : 0
Format                                   : MPEG-4 Visual
Format profile                           : Advanced Simple@L5
Format settings, BVOP                    : 1
Format settings, QPel                    : No
Format settings, GMC                     : No warppoints
Format settings, Matrix                  : Default (MPEG)
Muxing mode                              : Packed bitstream
Codec ID                                 : XVID
Codec ID/Hint                            : XviD
Duration                                 : 1h 26mn
Bit rate                                 : 1 931 Kbps
Width                                    : 704 pixels
Height                                   : 288 pixels
Display aspect ratio                     : 2.40:1
Frame rate                               : 25.000 fps
Color space                              : YUV
Chroma subsampling                       : 4:2:0
Bit depth                                : 8 bits
Scan type                                : Progressive
Compression mode                         : Lossy
Bits/(Pixel*Frame)                       : 0.381
Stream size                              : 1.16 GiB (91%)
Writing library                          : XviD 1.2.0.dev47 (UTC 2006-11-01)
Audio
ID                                       : 1
Format                                   : MPEG Audio
Format version                           : Version 1
Format profile                           : Layer 3
Codec ID                                 : 55
Codec ID/Hint                            : MP3
Duration                                 : 1h 26mn
Bit rate mode                            : Constant
Bit rate                                 : 192 Kbps
Channel(s)                               : 2 channels
Sampling rate                            : 44.1 KHz
Compression mode                         : Lossy
Stream size                              : 118 MiB (9%)
Alignment                                : Split accross interleaves
Interleave, duration                     : 40 ms (1.00 video frame)
Interleave, preload duration             : 500 ms

Скриншоты


[Профиль] [ЛС]

Lin

Стаж: 2 года 9 месяцев

Сообщений: 4

Пост 30-Ноя-2014 11:30 (спустя 1 месяц 7 дней)

[Цитировать]

Встаньте на раздачу пожалуйста)
[Профиль] [ЛС]
Показать сообщения:    
Ответить на тему

Текущее время: Сегодня 02:23

Часовой пояс: GMT



Вы не можете начинать темы
Вы не можете отвечать на сообщения
Вы не можете редактировать свои сообщения
Вы не можете удалять свои сообщения
Вы не можете голосовать в опросах
Вы не можете прикреплять файлы к сообщениям
Вы не можете скачивать файлы