Жалобы на работу трекера ! прошу сюда :)

Моя большая любовь / My Big Love (Джейд Кастро / Jade Castro) [2008 г., Драма, мелодрама, комедия, TVRip] [400p] DVO GREEN TEA

Ответить на тему
 
Автор Сообщение

dusy78 ®

Стаж: 3 года 10 месяцев

Сообщений: 1005

Откуда: Россия

Пост 19-Окт-2014 14:28

[Цитировать]

Моя большая любовь / My Big Love Год выпуска: 2008
Страна: Филиппины
Жанр: Драма, мелодрама, комедия
Продолжительность: 01:48:05
Озвучивание: mi24, pandora2177
СЕМПЛ: https://yadi.sk/i/BgWZbw-Jc8pKD
Режиссер: Джейд Кастро / Jade Castro
В ролях: Сэм Милби,
Тони Гонзага,
Кристин Эрмоса,
Рикардо Чепеда,
Дик Израэль,
Лито Пиментел,
Малу Де Гузман,
Янус Дел Прадо,
Марисса Санчез
Описание: Сэм Милби в роли Маки, вежливого, воспитанного и образованного шеф-повара. Он обладает всеми качествами идеального человека, за исключением того, что он имеет избыточный вес. Все его времяприпровождение - это приготовление и поедание пищи. Но он встречает двух женщин, которые переворачивают его жизнь с ног на голову.Нина (Кристин Эрмоса), является молодым светским обозревателем, которая очень нравится Маки. Для Нины, Макки становится тайным поклонником, который готовит ей пищу, дарит цветы, подарки. С другой стороны забора Айра ( Тони Гонзага ) яркая фитнесс-инструктор. Чтобы помочь Маки, она становится его личным тренером, побуждая его к тому, чтобы он избавился от лишнего веса, для того, чтобы понравится Нине. Что происходит потом..., это путешествие в поиске самого себя, открытия лучших сторон в себе и окружающих, обретение истинной любви, которой не страшны рамки лишнего веса!
Доп. информация:
Перевод: группа GREEN TEA
Перевод с английского: Ёся, pandora2177
Редакторы: pandora2177, Сана
Работа над звуком: pandora2177
Качество: TVRip
Формат: AVI
Видео кодек: XviD
Видео: 720x416, 25 fps, ~1623 kbps
Аудио: 48 kHz, 2 ch, 192.00 kbps

Скриншоты

MediaInfo

General
Complete name : F:\Фильмы\Moya.bolshaya.lyubov.2008.XviD.DVDRip.avi
Format : AVI
Format/Info : Audio Video Interleave
File size : 1.38 GiB
Duration : 1h 48mn
Overall bit rate : 1 829 Kbps
Movie name : моя бол люб 1
Writing application : Lavf52.33.0
Video
ID : 0
Format : MPEG-4 Visual
Format profile : Simple@L3
Format settings, BVOP : No
Format settings, QPel : No
Format settings, GMC : No warppoints
Format settings, Matrix : Default (H.263)
Codec ID : XVID
Codec ID/Hint : XviD
Duration : 1h 48mn
Bit rate : 1 624 Kbps
Width : 720 pixels
Height : 416 pixels
Display aspect ratio : 1.731
Frame rate : 25.000 fps
Color space : YUV
Chroma subsampling : 4:2:0
Bit depth : 8 bits
Scan type : Progressive
Compression mode : Lossy
Bits/(Pixel*Frame) : 0.217
Stream size : 1.23 GiB (89%)
Writing library : XviD 1.2.1 (UTC 2008-12-04)
Audio
ID : 1
Format : MPEG Audio
Format version : Version 1
Format profile : Layer 3
Mode : Joint stereo
Mode extension : MS Stereo
Codec ID : 55
Codec ID/Hint : MP3
Duration : 1h 48mn
Bit rate mode : Constant
Bit rate : 192 Kbps
Channel(s) : 2 channels
Sampling rate : 48.0 KHz
Compression mode : Lossy
Stream size : 148 MiB (10%)
Alignment : Aligned on interleaves
Interleave, duration : 24 ms (0.60 video frame)
Interleave, preload duration : 24 ms
Writing library : LAME3.98.2
[Профиль] [ЛС]
Показать сообщения:    
Ответить на тему

Текущее время: Сегодня 16:00

Часовой пояс: GMT



Вы не можете начинать темы
Вы не можете отвечать на сообщения
Вы не можете редактировать свои сообщения
Вы не можете удалять свои сообщения
Вы не можете голосовать в опросах
Вы не можете прикреплять файлы к сообщениям
Вы не можете скачивать файлы