Жалобы на работу трекера ! прошу сюда :)

Девушка моего лучшего друга / My Bestfriend's Girlfriend (Марк А. Рейес) [2008 г., Комедия, романтика, TVRip] [400p] DVO GREEN TEA

Ответить на тему
 
Автор Сообщение

dusy78 ®

Стаж: 3 года 10 месяцев

Сообщений: 1005

Откуда: Россия

Пост 19-Окт-2014 15:11

[Цитировать]

Девушка моего лучшего друга / My Bestfriend's Girlfriend Год выпуска: 2008
Страна: Филиппины
Жанр: Комедия, романтика
Озвучивание: Виктор Ерёменко и Ульяна Громова
СЕМПЛ: https://yadi.sk/i/Orm0gwILc8rvW
Режиссер: Марк А. Рейес
В ролях: Ричард Гутьеррез
Мариан Ривера
Описание: Молодой красавчик Иво - богатый бабник и бездельник, дни напролет знай себе веселится с друзьями, что очень не радует его амбициозную подружку Акико. На мальчишнике у приятеля Иво начал приставать к стриптизерше из торта, но девушка оказалась с характером и так врезала ловеласу, что тот потом неделю прихрамывал. К тому же Акико, узнав про его похождения, бросила бедолагу. А тут лучший друг захотел познакомить Иво со своей девушкой. Каково же было его удивление, когда ею оказалась та самая танцовщица с мальчишника…
Доп. информация:
Оформление постера: Amoreoni
Перевод: Verkar & Aleksa-k
Рип: Ольга Гринтиева
Качество: TVRip
Формат: AVI
Видео кодек: XviD
Аудио кодек: MP3
Видео: 720х400, 1376 Кбит/с, 29.970 fps
Аудио: 192 Кбит/с, 48.0 КHz, 2 канала

Скриншоты

MediaInfo

General
Complete name : F:\Фильмы\[GREEN TEA] My Bestfriend's Girlfriend.avi
Format : AVI
Format/Info : Audio Video Interleave
File size : 1.24 GiB
Duration : 1h 52mn
Overall bit rate : 1 580 Kbps
Writing application : VirtualDubMod 1.5.10.2 (build 2540/release)
Writing library : VirtualDubMod build 2540/release
Video
ID : 0
Format : MPEG-4 Visual
Format profile : Advanced Simple@L5
Format settings, BVOP : 3
Format settings, QPel : No
Format settings, GMC : No warppoints
Format settings, Matrix : Default (H.263)
Codec ID : XVID
Codec ID/Hint : XviD
Duration : 1h 52mn
Bit rate : 1 376 Kbps
Width : 720 pixels
Height : 400 pixels
Display aspect ratio : 16:9
Frame rate : 29.970 fps
Color space : YUV
Chroma subsampling : 4:2:0
Bit depth : 8 bits
Scan type : Progressive
Compression mode : Lossy
Bits/(Pixel*Frame) : 0.159
Stream size : 1.08 GiB (87%)
Writing library : XviD 1.2.0.dev47 (UTC 2006-11-01)
Audio
ID : 1
Format : MPEG Audio
Format version : Version 1
Format profile : Layer 3
Mode : Joint stereo
Codec ID : 55
Codec ID/Hint : MP3
Duration : 1h 52mn
Bit rate mode : Constant
Bit rate : 192 Kbps
Channel(s) : 2 channels
Sampling rate : 48.0 KHz
Compression mode : Lossy
Stream size : 155 MiB (12%)
Alignment : Aligned on interleaves
Interleave, duration : 33 ms (1.00 video frame)
Interleave, preload duration : 504 ms
[Профиль] [ЛС]
Показать сообщения:    
Ответить на тему

Текущее время: Сегодня 16:31

Часовой пояс: GMT



Вы не можете начинать темы
Вы не можете отвечать на сообщения
Вы не можете редактировать свои сообщения
Вы не можете удалять свои сообщения
Вы не можете голосовать в опросах
Вы не можете прикреплять файлы к сообщениям
Вы не можете скачивать файлы