Жалобы на работу трекера ! прошу сюда :)

Ты - единственный / You Are The One (Cathy Garcia-Molina) [2006 г., романтика, TVRip] VO GREEN TEA

Ответить на тему
 
Автор Сообщение

dusy78 ®

Стаж: 3 года 10 месяцев

Сообщений: 1005

Откуда: Россия

Пост 22-Окт-2014 12:11

[Цитировать]

Ты - единственный / You Are The One Год выпуска: 2006
Страна: Филиппины
Жанр: романтика
Продолжительность: 01:50:00
Озвучивание: pandora2177
СЕМПЛ: https://yadi.sk/i/sd7WDp1BcD4kM
Режиссер: Cathy Garcia-Molina
В ролях:
Toni Gonzaga as Sally Malasmas
Sam Milby as Will Derby / Vernard Garcia
Jodi Sta. Maria as Charry Malasmas
Eugene Domingo as Dora
Gio Alvarez as Melody
Susan Africa as Sally and Charry's mother
Lito Pimentel as Sally's boss
Jao Mapa as Venjamin Garcia
Arron Villaflor as Ryan
Rio Locsin as Myra Ramos-Garcia
Описание: Салли Маласмас (Tони Гонзага) хочет получить визу в США, чтобы ухаживать за больной матерью. Когда-то родители и сестра Салли эмигрировали в поисках «американской мечты» и так там и остались. Сама же Салли не хотела покидать родную землю, ведь Филиппины были для нее единственным домом.
Так она знакомится с вице-консулом Уилл Дерби (Сэм Милби), обаятельным молодым парнем с приветливой улыбкой. О, да, это ее день - уверена девушка. Но Уилл думает, что Салли, приехав в США, останется там нелегальной эмигранткой. С такой же очаровательной улыбкой он отвергает прошение и уходит прежде, чем она смогла вымолвить хоть слово. Все ее надежды летят коту под хвост.
Судьба вновь сводит пару, когда Уилл - коренной филиппинец, усыновлённый американской семьёй - приходит в Национальной бюро статистики, в поисках информации о своих настоящих родителях. Разумеется, он попадает к Салли, и тут разозлённая девушка решает взять реванш...
Доп. информация:
Релиз: группы GREEN TEA
Перевод: фансаб-группа "Альянс"
Работа со звуком: pandora2177
Качество: TVRip
Формат: AVI
Видео кодек: XviD
Аудио кодек: MP3
Видео: 512х384, 790 Кбит/с, 23.976 fps
Аудио: 192 Кбит/с, 48.0 КHz, 2 канала

Скриншоты

MediaInfo

General
Complete name : F:\Фильмы\[GREEN TEA] You Are the One (Ты едиственный).avi
Format : AVI
Format/Info : Audio Video Interleave
File size : 805 MiB
Duration : 1h 50mn
Overall bit rate mode : Variable
Overall bit rate : 1 019 Kbps
Writing application : VirtualDubMod 1.5.10.2 (build 2540/release)
Writing library : VirtualDubMod build 2540/release
Video
ID : 0
Format : MPEG-4 Visual
Format profile : Advanced Simple@L5
Format settings, BVOP : 1
Format settings, QPel : No
Format settings, GMC : No warppoints
Format settings, Matrix : Default (H.263)
Muxing mode : Packed bitstream
Codec ID : XVID
Codec ID/Hint : XviD
Duration : 1h 50mn
Bit rate : 790 Kbps
Width : 512 pixels
Height : 384 pixels
Display aspect ratio : 4:3
Frame rate : 23.976 fps
Color space : YUV
Chroma subsampling : 4:2:0
Bit depth : 8 bits
Scan type : Progressive
Compression mode : Lossy
Bits/(Pixel*Frame) : 0.168
Stream size : 624 MiB (78%)
Writing library : XviD 1.2.1 (UTC 2008-12-04)
Audio #1
ID : 1
Format : MPEG Audio
Format version : Version 1
Format profile : Layer 3
Mode : Joint stereo
Mode extension : MS Stereo
Codec ID : 55
Codec ID/Hint : MP3
Duration : 1h 50mn
Bit rate mode : Constant
Bit rate : 128 Kbps
Channel(s) : 2 channels
Sampling rate : 48.0 KHz
Compression mode : Lossy
Stream size : 101 MiB (13%)
Alignment : Split accross interleaves
Interleave, duration : 42 ms (1.00 video frame)
Interleave, preload duration : 500 ms
Language : Tagalog
Audio #2
ID : 2
Format : MPEG Audio
Format version : Version 1
Format profile : Layer 3
Mode : Joint stereo
Codec ID : 55
Codec ID/Hint : MP3
Duration : 1h 50mn
Bit rate mode : Variable
Bit rate : 86.2 Kbps
Nominal bit rate : 96.0 Kbps
Channel(s) : 2 channels
Sampling rate : 32.0 KHz
Compression mode : Lossy
Stream size : 68.1 MiB (8%)
Alignment : Aligned on interleaves
Interleave, duration : 36 ms (0.86 video frame)
Interleave, preload duration : 581 ms
Writing library : LAME3.97
Encoding settings : -m j -V 4 -q 2 -lowpass 15.1 --abr 96
[Профиль] [ЛС]

wendybird

Стаж: 11 месяцев 27 дней

Сообщений: 1

Пост 10-Дек-2015 14:02 (спустя 1 год 1 месяц)

[Цитировать]

Раздайте, пожалуйста! )
[Профиль] [ЛС]
Показать сообщения:    
Ответить на тему

Текущее время: Сегодня 14:05

Часовой пояс: GMT



Вы не можете начинать темы
Вы не можете отвечать на сообщения
Вы не можете редактировать свои сообщения
Вы не можете удалять свои сообщения
Вы не можете голосовать в опросах
Вы не можете прикреплять файлы к сообщениям
Вы не можете скачивать файлы