Жалобы на работу трекера ! прошу сюда :)

Буду любить тебя 10 тысяч лет / Love You 10.000 Years (Toyoharu Kitamura) [2010 г., Романтическая комедия, TVRip] [400p] VO GREEN TEA

Ответить на тему
 
Автор Сообщение

dusy78 ®

Стаж: 3 года 10 месяцев

Сообщений: 1005

Откуда: Россия

Пост 22-Окт-2014 12:43

[Цитировать]

Буду любить тебя 10 тысяч лет / Love You 10.000 Years Год выпуска: 2010
Страна: Тайвань
Жанр: Романтическая комедия
Продолжительность: 108 мин.
Озвучивание: mi24
Семпл: https://yadi.sk/i/-lopmVIlcD7xC
Режиссер: Toyoharu Kitamura
В ролях:
Vic Zhou
Kato Yuki
Yuzhi Lin
Yue Wang
Huang Deng Hui
Hao Lei
Li Bo En
Chen Shan
Описание: Таким вы его еще не видели…
Вик Чоу - в новом дерзком образе: небритый… взъерошенный… в неприлично ярко-розовом костюме…
Вик Чоу – в роли солиста рок-группы... Не ожидали? Он будет для вас петь… играть на гитаре… танцевать… Думаете это легко? Нет!
Ему предстоит непростая задача: перепеть на собственный манер старинную классическую песню "Love You Ten Thousand Years", исполняемую ранее Wynners, Five Tigers, Wu Bai and Li Yi Chun!
И он сделает это, поверьте мне, друзья!
Чего вам еще не хватает для полного счастья, когда вы смотрите фильм?
Может, вам наскучили традиционные детские поцелуи-прилипучки в дорамах?
Может, вам не хватает страстной постельной сцены?
Хм… все поправимо…
Итак, подытожим…
Рецепт успеха фильма прост:
- в качестве ингредиентов берем двух симпатичных главных героев,
- в основу блюда закладываем любовь,
- приправляем полученное хорошей музыкой и танцами.
Приятного аппетита! (с) Виктория
Доп. информация:
Релиз: группы GREEN TEA
Перевод: фансаб-группа "Альянс"
Качество: TVRip
Формат: MKV
Видео кодек: MPEG4
Аудио кодек: AC3
Видео: 720х400, 1 423 Kbps, 23.976 fps
Аудио: 320 Кбит/с, 48.0 КHz, 2 канала

Скриншоты

MediaInfo

General
Unique ID : 204889414808412528416834820060374756898 (0x9A244413C6860DFF9C6C62700681EE22)
Complete name : F:\Фильмы\[GREEN TEA] Буду любить тебя 10 тысяч лет.mkv
Format : Matroska
Format version : Version 2
File size : 1.36 GiB
Duration : 1h 49mn
Overall bit rate : 1 779 Kbps
Encoded date : UTC 2013-08-25 16:02:06
Writing application : mkvmerge v5.5.0 ('Healer') built on Apr 6 2012 21:43:24
Writing library : libebml v1.2.3 + libmatroska v1.3.0
Video
ID : 1
Format : MPEG-4 Visual
Format profile : Advanced Simple@L5
Format settings, BVOP : Yes
Format settings, QPel : No
Format settings, GMC : No warppoints
Format settings, Matrix : Default (MPEG)
Codec ID : V_MS/VFW/FOURCC / XVID
Codec ID/Hint : XviD
Duration : 1h 49mn
Bit rate : 1 423 Kbps
Width : 720 pixels
Height : 400 pixels
Display aspect ratio : 16:9
Frame rate mode : Constant
Frame rate : 23.976 fps
Color space : YUV
Chroma subsampling : 4:2:0
Bit depth : 8 bits
Scan type : Progressive
Compression mode : Lossy
Bits/(Pixel*Frame) : 0.206
Stream size : 1.09 GiB (80%)
Writing library : XviD 58
Default : Yes
Forced : No
Audio
ID : 2
Format : AC-3
Format/Info : Audio Coding 3
Mode extension : CM (complete main)
Format settings, Endianness : Big
Muxing mode : Header stripping
Codec ID : A_AC3
Duration : 1h 49mn
Bit rate mode : Constant
Bit rate : 320 Kbps
Channel(s) : 2 channels
Channel positions : Front: L R
Sampling rate : 48.0 KHz
Bit depth : 16 bits
Compression mode : Lossy
Stream size : 251 MiB (18%)
Default : Yes
Forced : No
Text
ID : 3
Format : ASS
Codec ID : S_TEXT/ASS
Codec ID/Info : Advanced Sub Station Alpha
Compression mode : Lossless
Default : Yes
Forced : No
[Профиль] [ЛС]

Timyr

Стаж: 2 года 9 месяцев

Сообщений: 16

Откуда: Украина,Одесса

Пост 18-Ноя-2015 02:09 (спустя 1 год)

[Цитировать]

Kato Yuki не могу понять искал ее відает другую актрису фото, совсем не похоже на нее((( потскажите главная актриса в єтом фильме имя как найти ее такая милая я в шоке

_________________
начил свой путь дорам с фильма Порывы ветра, этот фильм порвал мне мозг после этого я поклонник Южной кореи
[Профиль] [ЛС]

xxxxDreamxxxx

Стаж: 1 год 10 месяцев

Сообщений: 247

Откуда: Севастополь

Пост 18-Ноя-2015 10:19 (спустя 8 часов)

[Цитировать]

Kato Yuki не могу понять искал ее відает другую актрису фото, совсем не похоже на нее((( потскажите главная актриса в єтом фильме имя как найти ее такая милая я в шоке
Ответ на ваш вопрос очень прост:
Ответ заключается в том, что вы путаете японскую актрису Като Ю Джи (1989 г.р.) и индонезийскую актрису Юки Андрани Като (1995 г.р.), сценические имена у них - Юки Като !!!

Китайское название: Като Ю Джи
Английское название: Юки Като
Страна: Япония
Дата рождения: 16 декабря 1989
Место рождения: Япония, Токио
Созвездие: Стрелец
Тип крови: O
Высота: 175см
Род занятий: Актриса
Отец: китайско японский метис
Мать: тайванька
Актриса свободно разговаривает на японском и китайском
Хорошо известная модель Японии, бывший пресс-секретарь Shiseido Азии, а также известна по рекламам и печати в журналах (2009 год, дорама Магнолия)

_________________
[Профиль] [ЛС]
Показать сообщения:    
Ответить на тему

Текущее время: Сегодня 20:37

Часовой пояс: GMT



Вы не можете начинать темы
Вы не можете отвечать на сообщения
Вы не можете редактировать свои сообщения
Вы не можете удалять свои сообщения
Вы не можете голосовать в опросах
Вы не можете прикреплять файлы к сообщениям
Вы не можете скачивать файлы