Кто ты - Школа 2015 / Who Are You - School 2015 /Hooayoo- Hakgyo 2015 [16/16] (Пэк Сан Хун) [2015 г., детектив, романтика, школа, драма, HDTVRip] [360р] VO GREEN TEA

Страницы :  1, 2  След.

Ответить на тему
 
Автор Сообщение

dusy78 ®

Пол: Женский

Стаж: 4 года 10 месяца

Сообщений: 989

Откуда: Россия

Создавать темы 16-Май-2015 06:49

[Цитировать]

Кто ты: Школа 2015
Who Are You - School 2015 /Hooayoo- Hakgyo 2015
Год выпуска: 2015
Страна: Южная Корея
Жанр: детектив, романтика, школа, драма
Продолжительность: 16/16
Озвучивание: Екатерина Юрьева
Семпл: https://yadi.sk/i/HP4iiR5ugfQ3y
Режиссер: Пэк Сан Хун
В ролях:
Син Чжон Гын,
Ли Дэ Ён,
Ким Бо Ра,
Ли Пиль Мо,
Ли Чо Хи,
Чо Док Хён,
Ким Мин Сок,
Пак Ду Сик,
Ким Хи Чон,
Ли Дэвид,
Ким Мин Ён,
Чо Су Хян,
Ю Ён,
Чон Ин Ги
Описание: Что на самом деле происходит в стенах самых элитных школ района Каннам в Сеуле?
Ынбёль очень популярна в своей школе. Однажды она внезапно пропадает, но через какое-то время так же внезапно возвращается. Проблема лишь в том, что она совершенно ничего не помнит и поэтому хочет разобраться в том, что же произошло...
Доп. информация:
Перевод: FSG Cardinals
Релиз группы:
Работа со звуком: Екатерина Юрьева
Оформление постера:
Дина Фаткуллина
Качество: TVRip
Формат: AVI
Видео кодек: Xvid
Аудио кодек: MP3
Видео: 624x352, ~1400 Кбит/с, 29.97 fps
Аудио: 44.0 KHz, 192 Кбит/c, 2 канала
ОСТ к дораме Кто ты - Школа 2015
!!! Альтернативная раздача 1080p
!!! Альтернативная раздача 720p

Скриншоты

MediaInfo

Format : AVI
Format/Info : Audio Video Interleave
File size : 703 MiB
Duration : 59mn 34s
Overall bit rate : 1 650 Kbps
Writing application : VirtualDubMod 1.5.10.2 (build 2542/release)
Writing library : VirtualDubMod build 2542/release
Video
ID : 0
Format : xvid
Codec ID : xvid
Duration : 59mn 34s
Bit rate : 1 447 Kbps
Width : 624 pixels
Height : 352 pixels
Display aspect ratio : 16:9
Frame rate : 29.970 fps
Bits/(Pixel*Frame) : 0.220
Stream size : 616 MiB (88%)
Audio
ID : 1
Format : MPEG Audio
Format version : Version 1
Format profile : Layer 3
Mode : Joint stereo
Codec ID : 55
Codec ID/Hint : MP3
Duration : 59mn 34s
Bit rate mode : Constant
Bit rate : 192 Kbps
Channel(s) : 2 channels
Sampling rate : 44.1 KHz
Compression mode : Lossy
Stream size : 81.8 MiB (12%)
Alignment : Split accross interleaves
Interleave, duration : 33 ms (1.00 video frame)
Interleave, preload duration : 500 ms
Добавлена 16 серия!


Последний раз редактировалось: dusy78 (2015-06-22 16:38), всего редактировалось 4 раз(а)
[Профиль] [ЛС]

dusy78 ®

Пол: Женский

Стаж: 4 года 10 месяца

Сообщений: 989

Откуда: Россия

Создавать темы 18-Май-2015 05:46 (спустя 1 день 22 часа)

[Цитировать]

Добавлена 2 серия!
[Профиль] [ЛС]

dusy78 ®

Пол: Женский

Стаж: 4 года 10 месяца

Сообщений: 989

Откуда: Россия

Создавать темы 21-Май-2015 12:21 (спустя 3 дня)

[Цитировать]

Добавлены 3-4 серии!
[Профиль] [ЛС]

alpugold

Пол: Не указан

Стаж: 4 года 9 месяца

Сообщений: 62

Создавать темы 21-Май-2015 13:45 (спустя 1 час 23 минуты)

[Цитировать]

Чем дальше, тем интереснее)) Спасибо))
[Профиль] [ЛС]

dusy78 ®

Пол: Женский

Стаж: 4 года 10 месяца

Сообщений: 989

Откуда: Россия

Создавать темы 22-Май-2015 19:34 (спустя 1 день 5 часа)

[Цитировать]

Добавлена 5 серия!
[Профиль] [ЛС]

Tanatataniel

Пол: Не указан

Стаж: 2 года 5 месяца

Сообщений: 1

Создавать темы 03-Июн-2015 18:14 (спустя 11 дня)

[Цитировать]

Пожалуйста залейте остальные озвученные серии. Заранее благодарю
[Профиль] [ЛС]

Hyde-kun

Пол: Женский

Стаж: 3 года 11 месяца

Сообщений: 1

Создавать темы 17-Июн-2015 18:07 (спустя 13 дня)

[Цитировать]

безумно ожидаю остальные переведенные серии в данном формате
[Профиль] [ЛС]

Syn_Se_Gi

Пол: Не указан

Стаж: 2 года 5 месяца

Сообщений: 2

Создавать темы 17-Июн-2015 19:12 (спустя 1 час 5 минуты)

[Цитировать]

Пожалуйста залейте все серии этой дорамы в торент трекер.... можно и без озвучки)... а если с озвучкой ещё лучше....
[Профиль] [ЛС]

Anastasia-chan

Пол: Не указан

Стаж: 3 года 2 месяца

Сообщений: 1

Создавать темы 19-Июн-2015 10:55 (спустя 1 день 15 часа)

[Цитировать]

залейте пожалуйста все серии, а то не где скачать :с
[Профиль] [ЛС]

SergeyS

Пол: Не указан

Стаж: 4 года 1 месяц

Сообщений: 3

Создавать темы 19-Июн-2015 12:55 (спустя 1 час 59 минуты)

[Цитировать]

когда все серии зальют?
[Профиль] [ЛС]

Nazi926

Пол: Не указан

Стаж: 3 года 5 месяца

Сообщений: 1

Создавать темы 19-Июн-2015 13:31 (спустя 36 минуты)

[Цитировать]

Добавлена 2 серия!
уже все серии вышли, когда они будут?
[Профиль] [ЛС]

ElixirVitae

Пол: Не указан

Стаж: 4 года 1 месяц

Сообщений: 9

Создавать темы 20-Июн-2015 14:02 (спустя 1 день)

[Цитировать]

Извините, а когда раздача обновится? На сайте-то уже все серии есть.
[Профиль] [ЛС]

Melind@

Пол: Не указан

Стаж: 4 года 1 месяц

Сообщений: 80

Создавать темы 20-Июн-2015 23:33 (спустя 9 часа)

[Цитировать]

Извините, а когда раздача обновится? На сайте-то уже все серии есть.
Тоже очень очень ждем...
[Профиль] [ЛС]

dusy78 ®

Пол: Женский

Стаж: 4 года 10 месяца

Сообщений: 989

Откуда: Россия

Создавать темы 22-Июн-2015 16:41 (спустя 1 день 17 часа)

[Цитировать]

Добавлены 6-16 серии!
Приятного просмотра!
[Профиль] [ЛС]

Tasya1605

Пол: Не указан

Стаж: 4 года

Сообщений: 3

Создавать темы 22-Июн-2015 18:18 (спустя 1 час 36 минуты)

[Цитировать]

Спасибо!!!!))
[Профиль] [ЛС]
Показать сообщения:    
Ответить на тему

Текущее время: 19-Ноя 16:09

Часовой пояс: UTC ± 0



Вы не можете начинать темы
Вы не можете отвечать на сообщения
Вы не можете редактировать свои сообщения
Вы не можете удалять свои сообщения
Вы не можете голосовать в опросах
Вы не можете прикреплять файлы к сообщениям
Вы не можете скачивать файлы