Кодовое имя: Шакал / Code name: Jackal (Пэ Хён-Чжун / Bae Hyeong-joon) [2012 г., комедия, HDTVRip] DVO GREEN TEA

Страницы :  1, 2  След.

Ответить на тему
 
Автор Сообщение

dusy78 ®

Пол: Женский

Стаж: 4 года 10 месяца

Сообщений: 989

Откуда: Россия

Создавать темы 07-Фев-2013 19:41

[Цитировать]

Кодовое имя: Шакал / Code name: Jackal
-
Год выпуска: 2012
Страна: Южная Корея
Жанр: комедия
Продолжительность: 1 ч. 47 мин.
-
Перевод: Двухголосый (закадровый) Nas и Shouske
СЭМПЛ: http://rghost.ru/43640368
-
Режиссер: Пэ Хён-Чжун / Bae Hyeong-joon
В ролях: Сон Чжи Хё - Пон Мин-Чжон (Шакал)
Ким Чжэ-Чжун - певец Чхве Хён
О Даль-Су – руководитель Ма
Хан Сан-Джин) – руководитель группы Шин
Ким Сон-Рён) - Анжела
Описание: По отелю "Paradise" в Сон-Джу снуют полицейские, здесь по оперативным данным должна появиться легендарный киллер Пон Мин-Чжон (Сон Чжи Хё) по кличке "Шакал”, а за ее поимку объявлена награда в сто миллионов. В этом же отеле остановился и суперзвезда Чхве Хён (Ким Чжэ-Чжун). Ведь очередным заказом Шакала является именно он. Но для девушки это последний заказ - она решила завязать. Заманив певца в ловушку, киллер похищает его. В этот раз у нее странное задание, она должна свести мужчину с ума. Но теперь девушка не знает как быть, поняв, что жертва - тот певец, которым она так восхищается, и чьей ярой фанаткой является. А Чхве Хён догадался, что клиентом его похитительницы является его бывшая подружка Анжела. В то время, когда Анжела появилась в номере, чтобы полюбоваться на парня, ставшего теперь ее игрушкой, она была неумышленно убита Мин-Чжон. А вот тут начинается самое интересное, ведь Хён решает помочь девушке выпутаться из затруднительного положения...
-
Доп. информация:
Релиз: группа GREEN TEA
Перевод (с норвежского!): Эльза Нордж
Озвучивание: Nas и Shouske
Работа со звуком: Ольга Гринтиева
Оформление постера: dusy78 и Ольга Гринтиева

-
Качество: HDRip
Формат: MKV
Видео кодек: AVC
Видео: 1024х432, 1700 Кбит/сек, 24,000 кадра/сек, 2,35:1
Аудио: AC3, 192 кб/с, 2 канала, 48 Гц

Скриншоты






МедиаИнфо

Формат : Matroska
Версия формата : Version 2
Размер файла : 1,42 Гбайт
Продолжительность : 1 ч. 47 м.
Общий поток : 1899 Кбит/сек
Дата кодирования : UTC 2013-02-07 21:04:40
Программа кодирования : mkvmerge v5.7.0 ('The Whirlwind') built on Jul 8 2012 20:08:51
Библиотека кодирования : libebml v1.2.3 + libmatroska v1.3.0
Видео
Идентификатор : 1
Формат : AVC
Формат/Информация : Advanced Video Codec
Профиль формата : Baseline@L3.1
Параметр CABAC формата : Нет
Параметр ReFrames формата : 1 кадр
Режим смешивания : Header stripping
Идентификатор кодека : V_MPEG4/ISO/AVC
Продолжительность : 1 ч. 47 м.
Битрейт : 1700 Кбит/сек
Ширина : 1024 пикселя
Высота : 432 пикселя
Соотношение сторон : 2,35:1
Режим частоты кадров : Переменный
Частота кадров : 24,000 кадра/сек
Цветовое пространство : YUV
Субдискретизация насыщенности : 4:2:0
Битовая глубина : 8 бит
Тип развёртки : Прогрессивная
Бит/(Пиксели*Кадры) : 0.160
Размер потока : 1,25 Гбайт (88%)
Библиотека кодирования : x264 core 125
Настройки программы : cabac=0 / ref=1 / deblock=1:0:0 / analyse=0x1:0x1 / me=dia / subme=1 / psy=1 / psy_rd=1.00:0.00 / mixed_ref=0 / me_range=16 / chroma_me=1 / trellis=0 / 8x8dct=0 / cqm=0 / deadzone=21,11 / fast_pskip=1 / chroma_qp_offset=0 / threads=3 / lookahead_threads=1 / sliced_threads=0 / nr=0 / decimate=1 / interlaced=0 / bluray_compat=0 / constrained_intra=0 / bframes=0 / weightp=0 / keyint=250 / keyint_min=24 / scenecut=40 / intra_refresh=0 / rc=abr / mbtree=0 / bitrate=1700 / ratetol=1.0 / qcomp=0.60 / qpmin=0 / qpmax=69 / qpstep=4 / ip_ratio=1.40 / aq=1:1.00
Default : Да
Forced : Нет
Аудио
Идентификатор : 2
Формат : AC-3
Формат/Информация : Audio Coding 3
Расширение режима : CM (complete main)
Режим смешивания : Header stripping
Идентификатор кодека : A_AC3
Продолжительность : 1 ч. 47 м.
Вид битрейта : Постоянный
Битрейт : 192 Кбит/сек
Каналы : 2 канала
Расположение каналов : Front: L R
Частота : 48,0 КГц
Битовая глубина : 16 бит
Метод сжатия : С потерями
Размер потока : 147 Мбайт (10%)
Default : Да
Forced : Нет
[Профиль] [ЛС]

Foull

Пол: Мужской

Стаж: 4 года 9 месяца

Сообщений: 40

Откуда: Украина

Создавать темы 07-Фев-2013 20:28 (спустя 46 минуты)

[Цитировать]

Ждемс) bo
[Профиль] [ЛС]

Johnny

Пол: Не указан

Стаж: 4 года 9 месяца

Сообщений: 7

Создавать темы 07-Фев-2013 21:19 (спустя 50 минуты)

[Цитировать]

качаем-с
[Профиль] [ЛС]

yukika

Пол: Не указан

Стаж: 4 года 9 месяца

Сообщений: 2

Создавать темы 08-Фев-2013 06:48 (спустя 9 часа)

[Цитировать]

Cпасибо!!
[Профиль] [ЛС]

Eshlly

Пол: Не указан

Стаж: 4 года 9 месяца

Сообщений: 1

Создавать темы 08-Фев-2013 11:39 (спустя 4 часа)

[Цитировать]

Большое спасибо!!)) Очень хотелось посмотреть этот фильм)))
[Профиль] [ЛС]

BetaKsi

Пол: Женский

Стаж: 4 года 9 месяца

Сообщений: 5

Откуда: Астрахань

Создавать темы 08-Фев-2013 14:50 (спустя 3 часа)

[Цитировать]

Заранее большое спасибо))) (Ещё не скачивала). Мечтала об озвучке, так как теряла сознание и упускала субтитры с того момента, как JaeJoong выходил в одном полотенце из ванны (момент из фильма))) Думаю? не толькj у меня были такие проблемы с субтитрами)))
Ещё раз thank you)))
[Профиль] [ЛС]

camille04

Пол: Не указан

Стаж: 4 года 9 месяца

Сообщений: 6

Создавать темы 08-Фев-2013 15:02 (спустя 12 минуты)

[Цитировать]

Спасибо, люблю ваши переводы
[Профиль] [ЛС]

ciranona

Пол: Не указан

Стаж: 4 года 9 месяца

Сообщений: 1

Создавать темы 08-Фев-2013 17:25 (спустя 2 часа 22 минуты)

[Цитировать]

блин, обложка многообещающая, а фильм никакой, только концовка более-менее(.
смотрится очень дешево(.
за перевод-спасибо, как всегда молодцы).
[Профиль] [ЛС]

ekctra25

Пол: Не указан

Стаж: 4 года 9 месяца

Сообщений: 143

Создавать темы 08-Фев-2013 20:16 (спустя 2 часа 50 минуты)

[Цитировать]

спасибо за озвучку))
[Профиль] [ЛС]

EL_1991

Пол: Не указан

Стаж: 4 года 9 месяца

Сообщений: 36

Создавать темы 09-Фев-2013 13:39 (спустя 17 часа)

[Цитировать]

Спасибо большое,озвучка супер,как всегда,а вот сюжет средненький.
[Профиль] [ЛС]

Булат

Пол: Не указан

Стаж: 4 года 9 месяца

Сообщений: 2

Создавать темы 09-Фев-2013 17:10 (спустя 3 часа)

[Цитировать]

почему не скачивается, жду
[Профиль] [ЛС]

Stacey-Susy

Пол: Женский

Стаж: 4 года 9 месяца

Сообщений: 51

Создавать темы 10-Фев-2013 13:04 (спустя 19 часа)

[Цитировать]

Фильм не порадовал...описание и обложка поманили интересным сюжетом, но фильм пустой и не интересный. Если б не прикольный перевод и озвучка, выключила бы на 10 минуте. Но некоторые реплики очень повеселили bj
[Профиль] [ЛС]

aleks_13

Пол: Женский

Стаж: 4 года 9 месяца

Сообщений: 7

Создавать темы 11-Фев-2013 14:11 (спустя 1 день 1 час)

[Цитировать]

Огромное вам спасибо!!! Давно ждала этот фильм с озвучкой! Вы лучше всех)))
[Профиль] [ЛС]

Asil

Пол: Не указан

Стаж: 4 года 8 месяца

Сообщений: 2

Создавать темы 12-Мар-2013 14:37 (спустя 1 месяц 1 день)

[Цитировать]

Aдм спасибо больш!!!!
[Профиль] [ЛС]

JL-BS

Пол: Не указан

Стаж: 3 года 11 месяца

Сообщений: 12

Создавать темы 15-Янв-2014 19:39 (спустя 10 месяца 3 дня)

[Цитировать]

Мда, не сюжет, а бредятина(((( разочарование века... бееее...
[Профиль] [ЛС]
Показать сообщения:    
Ответить на тему

Текущее время: 19-Ноя 06:34

Часовой пояс: UTC ± 0



Вы не можете начинать темы
Вы не можете отвечать на сообщения
Вы не можете редактировать свои сообщения
Вы не можете удалять свои сообщения
Вы не можете голосовать в опросах
Вы не можете прикреплять файлы к сообщениям
Вы не можете скачивать файлы