Ответь мне, 1994 / Отвечай, 1994 / Answer Me 1994 / Reply 1994 / Eungdabhara 1994 [16/21] (Шин Вон Хо) [2013 г., молодежный, романтика, комедия, HDTVRip] [RAW] [720p] DVO GREEN TEA

Goto page :  1, 2  Next

Reply to topic
 
Author Message

_@Black_ ®

Longevity: 9 months 15 days

Posts: 2

Post 13-Jan-2014 15:17

[Quote]

Ответь мне, 1994 / Отвечай, 1994 / Answer Me 1994 / Reply 1994 / Eungdabhara 1994

Год выпуска: 2013
Страна: Южная Корея
Жанр: Молодежный, романтика, комедия
Продолжительность: 16/21 (1:08:00)-Озвучка: Двухголосая (закадровая) Виктория Белая и Михаил Чёрный-Режиссёр: Шин Вон Хо
В ролях: Го А Ра, Чон У, Ю Юн Сок, Ким Сон Кён, Сон Ха Чжун, Баро, До Хи, Сон Дон Иль, Ли Иль Хва-Описание: Дорама повествует о жизни студентов колледжа, которые живут в Синчоне. В доме живут студенты со всех окрестностей, которые приехали в Сеул для учебы.
История затронет жизни первокурсников 1994 года, покажет, как они будут привыкать к жизни в большом городе.-Доп. информация:
Релиз группы: GREEN TEA
Озвучено по субтитрам: Фансаб-группы "Мания"
Координатор проекта: Екатерина Амальфи
Работа со звуком: Ольга Гринтиева
Оформление постера: Михаил Золотов-Качество видео: HDTVRip
Формат: AVI
Видео кодек: H.264
Аудио кодек: MP3
Видео: 1280x720, 3000 Кбит/с, 29.970 fps
Аудио: 48 kHz, 128 Кбит/с, 2 канала-Добавлена 16-я серия. перекачайте торрент-файл !-

Mediainfo

General
Complete name : D:\Мои видиозаписи\раздачи\[GREEN TEA] Answer me 1994\[GREEN TEA] Answer me 1994_01.avi
Format : AVI
Format/Info : Audio Video Interleave
File size : 1.51 GiB
Duration : 1h 8mn
Overall bit rate : 3 144 Kbps
Writing library : VirtualDub build 35491/release
Video
ID : 0
Format : AVC
Format/Info : Advanced Video Codec
Format profile : High@L5.1
Format settings, CABAC : Yes
Format settings, ReFrames : 4 frames
Codec ID : H264
Duration : 1h 8mn
Bit rate : 2 988 Kbps
Width : 1 280 pixels
Height : 720 pixels
Display aspect ratio : 16:9
Frame rate : 29.970 fps
Color space : YUV
Chroma subsampling : 4:2:0
Bit depth : 8 bits
Scan type : Progressive
Bits/(Pixel*Frame) : 0.108
Stream size : 1.45 GiB (96%)
Writing library : x264 core 116 r2057kMod 0ba8a9c
Encoding settings : cabac=1 / ref=4 / deblock=1:0:0 / analyse=0x3:0x13 / me=umh / subme=7 / psy=1 / fade_compensate=0.00 / psy_rd=1.00:0.00 / mixed_ref=1 / me_range=16 / chroma_me=1 / trellis=1 / 8x8dct=1 / cqm=0 / deadzone=21,11 / fast_pskip=1 / chroma_qp_offset=-2 / threads=4 / sliced_threads=1 / slices=4 / nr=0 / decimate=1 / interlaced=0 / bluray_compat=0 / constrained_intra=0 / bframes=0 / weightp=2 / keyint=250 / keyint_min=25 / scenecut=40 / intra_refresh=0 / rc=abr / mbtree=0 / bitrate=2988 / ratetol=1.0 / qcomp=0.60 / qpmin=10 / qpmax=51 / qpstep=4 / ip_ratio=1.40 / aq=1:1.00
Audio
ID : 1
Format : MPEG Audio
Format version : Version 1
Format profile : Layer 3
Mode : Joint stereo
Mode extension : MS Stereo
Codec ID : 55
Codec ID/Hint : MP3
Duration : 1h 8mn
Bit rate mode : Constant
Bit rate : 128 Kbps
Channel count : 2 channels
Sampling rate : 48.0 KHz
Compression mode : Lossy
Stream size : 63.1 MiB (4%)
Alignment : Split accross interleaves
Interleave, duration : 33 ms (1.00 video frame)
Interleave, preload duration : 500 ms

Скриншоты



Last edited by _@Black_ on 2014-07-06 21:16; edited 24 times in total
[Profile] [PM]

grommik

Longevity: 9 months 18 days

Posts: 2

Post 14-Jan-2014 13:12 (after 21 hour)

[Quote]

спасибо! классная дорамка
[Profile] [PM]

rodqer

Longevity: 1 year 5 months

Posts: 348

Location: кемерово

Post 14-Jan-2014 13:19 (after 7 minutes)

[Quote]

спасибо и с началом проекта вас
[Profile] [PM]

rodqer

Longevity: 1 year 5 months

Posts: 348

Location: кемерово

Post 26-Jan-2014 10:20 (after 11 days)

[Quote]

спасибо
[Profile] [PM]

Fresh_Viksa

Longevity: 9 months 18 days

Posts: 11

Post 26-Jan-2014 14:28 (after 4 hours)

[Quote]

Не за что!!))) ab ad

_________________
[Profile] [PM]

rodqer

Longevity: 1 year 5 months

Posts: 348

Location: кемерово

Post 01-Feb-2014 14:27 (after 5 days)

[Quote]

спасибочки )))))
[Profile] [PM]

rodqer

Longevity: 1 year 5 months

Posts: 348

Location: кемерово

Post 21-Feb-2014 13:39 (after 19 days)

[Quote]

спасибочки большое при большое)))))))))))))))))))))))))))))))))))))
[Profile] [PM]

aida6

Longevity: 6 months 20 days

Posts: 1

Post 23-Feb-2014 08:48 (after 1 day 19 hours)

[Quote]

спасибо за вас огромный труд))) я вам очень благодарна!!! Спасибо за то что приносите нам огромную радость!!! я люблю вас!!!
[Profile] [PM]

АнастасияПетровна

Longevity: 4 months 20 days

Posts: 1

Post 09-Mar-2014 20:22 (after 14 days)

[Quote]

спасибо!!!!!!
мои подруги с не терпеньем ждут вашу озвучку!!!
когда же уже целиком будет...?))
p.s. а я не дождалась с сабами посмотрела-интересно очень!^^
[Profile] [PM]

rodqer

Longevity: 1 year 5 months

Posts: 348

Location: кемерово

Post 16-Mar-2014 16:24 (after 6 days)

[Quote]

спасибо )))))
[Profile] [PM]

E2072

Longevity: 9 months 19 days

Posts: 100

Post 27-Mar-2014 07:00 (after 10 days)

[Quote]

Спасибо!
[Profile] [PM]

Ланочка10_83

Longevity: 9 months 8 days

Posts: 68

Post 03-Jul-2014 02:17 (after 3 months 6 days)

[Quote]

Спасибо :)
Скажите, пожалуйста, когда будет продолжение?
[Profile] [PM]

Fresh_Viksa

Longevity: 9 months 18 days

Posts: 11

Post 07-Jul-2014 06:06 (after 4 days)

[Quote]

Скоро будет продолжение))))

_________________
[Profile] [PM]

alavic

Longevity: 7 months 15 days

Posts: 2

Post 19-Jul-2014 05:39 (after 11 days)

[Quote]

Народ, помогите с раздачей. 3 дня не могу скачать последний эпизод.....
[Profile] [PM]

E2072

Longevity: 9 months 19 days

Posts: 100

Post 21-Jul-2014 16:23 (after 2 days 10 hours)

[Quote]

_@Black_, уже пятый день не могу докачать раздачу. Это не серьёзно( дораздайте уж, сделайте милость пожалуйста.
[Profile] [PM]
Display posts from previous:    
Reply to topic

The time now is: Today 14:37

All times are GMT



You cannot post new topics in this forum
You cannot reply to topics in this forum
You cannot edit your posts in this forum
You cannot delete your posts in this forum
You cannot vote in polls in this forum
You cannot attach files in this forum
You cannot download files in this forum