Следуя за CNBLUE / Go! CNBLUE [2013 г., Музыка, короткометражный, TVRip]

Ответить на тему
 
Автор Сообщение

Valerius Kafa ®

Пол: Не указан

Стаж: 4 года 1 месяц

Сообщений: 79

Создавать темы 06-Мар-2014 19:14

[Цитировать]

Следуя за СNBLUE
Go! CNBLUE

-Год выпуска: 2014
Страна: Южная Корея
Жанр: Музыка, короткометражный
Продолжительность: 41минута-Перевод: Одноголосый закадровый Валерий Феодосов-В ролях: Ли Чжон Шин, Кан Мин Хёк, Ли Чжон Хён, Чон Ён Хва
Описание: Фильм рассказывает о гастрольных турах, группы CNBLUE из Южной Кореи, в 2013-2014 годах.-Доп. информация:
Релиз группы GREEN TEA
Перевод: Эльза Нордж
Оформление постера: Елена Горборукова
Работа со звуком: Ольга Гринтиева-Качество: TVRip
Видео кодек: Другой MPEG4
Аудио кодек: AC3
Видео: MPEG4 1280*720(16:9)
Аудио: AC3 48.0 KHz 192 kbps

MediaInfo

Format : Matroska
File size : 671 MiB
Duration : 41mn 44s
Overall bit rate : 2 248 Kbps
Encoded date : UTC 2014-03-06 18:01:45
Writing application : mkvmerge v5.7.0 ('The Whirlwind') built on Jul 8 2012 20:08:51
Writing library : libebml v1.2.3 + libmatroska v1.3.0
Video #1
ID : 1
Format : AVC
Format/Info : Advanced Video Codec
Format profile : High@L3.1
Format settings, CABAC : Yes
Format settings, ReFrames : 1 frame
Muxing mode : Header stripping
Codec ID : V_MPEG4/ISO/AVC
Duration : 41mn 44s
Bit rate : 2 011 Kbps
Width : 1 280 pixels
Height : 720 pixels
Display aspect ratio : 16:9
Frame rate mode : Variable
Frame rate : 29.970 fps
Color space : YUV
Chroma subsampling : 4:2:0
Bit depth : 8 bits
Scan type : Progressive
Bits/(Pixel*Frame) : 0.073
Stream size : 600 MiB (89%)
Audio #2
ID : 2
Format : AC-3
Format/Info : Audio Coding 3
Mode extension : CM (complete main)
Muxing mode : Header stripping
Codec ID : A_AC3
Duration : 41mn 44s
Bit rate mode : Constant
Bit rate : 192 Kbps
Channel(s) : 2 channels
Channel positions : Front: L R
Sampling rate : 48.0 KHz
Bit depth : 16 bits
Compression mode : Lossy
Stream size : 57.3 MiB (9%)

Скриншоты

Озвучено по заказу зрительницы GREEN TEA.

_________________
Подпись отключена за нарушение правил форума


Последний раз редактировалось: Valerius Kafa (2014-03-29 05:20), всего редактировалось 1 раз
[Профиль] [ЛС]

record

Пол: Мужской

Стаж: 3 года 11 месяца

Сообщений: 7

Откуда: Украина, Киев

Создавать темы 06-Мар-2014 22:21 (спустя 3 часа)

[Цитировать]

Огромное спасибо за столь прекрасный перевод и качество видео.
По больше таких видео с певцами
[Профиль] [ЛС]

Ланочка10_83

Пол: Не указан

Стаж: 4 года 1 месяц

Сообщений: 130

Создавать темы 07-Мар-2014 02:17 (спустя 3 часа)

[Цитировать]

Спасибо!!! :)
[Профиль] [ЛС]

Inessa

Пол: Не указан

Стаж: 4 года 8 месяца

Сообщений: 40

Создавать темы 07-Мар-2014 11:07 (спустя 8 часа)

[Цитировать]

Огромное спасибо!
[Профиль] [ЛС]

EL_1991

Пол: Не указан

Стаж: 4 года 9 месяца

Сообщений: 36

Создавать темы 07-Мар-2014 14:38 (спустя 3 часа)

[Цитировать]

Где можно посмотреть список таких фильмов по певцов и актеров?
[Профиль] [ЛС]

rodqer

Пол: Не указан

Стаж: 4 года 9 месяца

Сообщений: 416

Откуда: кемерово

Создавать темы 07-Мар-2014 16:29 (спустя 1 час 51 минута)

[Цитировать]

спасибо))))))
[Профиль] [ЛС]

BOICE

Пол: Не указан

Стаж: 3 года 9 месяца

Сообщений: 3

Создавать темы 28-Мар-2014 14:19 (спустя 20 дня)

[Цитировать]

Ваааай, я в восхищении!!!
Спасибо Green tea за вашу работу ^о^
Так долго ждала этого *Q*
[Профиль] [ЛС]

PhoenixYuong

Пол: Не указан

Стаж: 4 года 9 месяца

Сообщений: 320

Откуда: Беларусь

Создавать темы 28-Мар-2014 14:45 (спустя 26 минуты)

[Цитировать]

Ох, а интересно то как!!! УХ!!!))) Обожаю такие вещи!
Громаднейшее спасибо!!!!!!
[Профиль] [ЛС]

Himerka-Lelik

Пол: Не указан

Стаж: 4 года 1 месяц

Сообщений: 10

Создавать темы 03-Апр-2014 19:07 (спустя 6 дня)

[Цитировать]

Ой, какая прелесть.... Спасибо большое!
[Профиль] [ЛС]

diva.ufa

Пол: Не указан

Стаж: 4 года 1 месяц

Сообщений: 19

Создавать темы 13-Фев-2016 21:21 (спустя 1 год 10 месяца)

[Цитировать]

Ох!.. Раздайтесь! Плиззз!
[Профиль] [ЛС]
Показать сообщения:    
Ответить на тему

Текущее время: 19-Ноя 16:07

Часовой пояс: UTC ± 0



Вы не можете начинать темы
Вы не можете отвечать на сообщения
Вы не можете редактировать свои сообщения
Вы не можете удалять свои сообщения
Вы не можете голосовать в опросах
Вы не можете прикреплять файлы к сообщениям
Вы не можете скачивать файлы