Месть может подождать / Vengance can wait / Ranbo to taiki / Ярость и ожидание (Томинага Масанори / Tominaga Masanori) [2010, Япония, драма, комедия, DVDRip] MVO (Catastrophe, Ульяна Громова, Fi.Re, Frank Tsvetkov)

Ответить на тему
 
Автор Сообщение

Catastrophe ®

Пол: Женский

Стаж: 4 года 10 месяца

Сообщений: 20

Откуда: Moscow, Greenburg

Создавать темы 20-Янв-2013 14:21

[Цитировать]

Месть может подождать / Vengance can wait / Ranbo to taiki / Ярость и ожидание
Страна: Япония
Жанр: драма, комедия
Год выпуска: 2010
Продолжительность: 01:37:59
Перевод: многоголосый закадровый
Сэмпл: http://multi-up.com/819180
Cубтитры: нет
Режиссер: Томинага Масанори / Tominaga Masanori
В ролях: Асано Таданобу, Минами, Ямада Такаюки, Койкэ Эйко
Описание: Проживая вот уже десять лет под одной крышей, эта пара находится в странных платонических отношениях. Хидэнори (Асано Таданобу) подглядывает за Нанасэ (Минами), вынашивая планы жестокой мести. Нанасэ же прекрасно осознает, что сосед за ней шпионит, и покорно ожидает наказания. Но это шаткое равновесие нарушается, когда по соседству поселяется другая молодая пара: Такао (Ямада Такаюки) и его беременная жена Адзуса (Койкэ Эйко).
Фильм основан на успешной пьесе Мотоя Юкико 2005 года. В 2008 вышла адаптация пьессы в виде романа, иллюстрации к которому сделал аниматор студии Gainax Цурумаки Кадзуя (FLCL, Evangelion, Berserk). Писательница Мотоя Юкико имеет несколько наград, включая две номинации на престижную премию Акутагавы. Её повесть Funuke domo, kanashimi no ai wo misero уже была экранизирована в 2007 режиссером Ёсида Дайхати и фильм получил высокую оценку критиков.
Доп. информация:
Релиз: группа "GREEN TEA"
Создание постера: dusy78
Роли озвучивали: Catastrophe , Ульяна Громова, Fi.Re, Frank Tsvetkov
Работа со звуком: Fi.Re
Переводчик (с японского): NoraThorn
Редактор: ladyxenax
Качество видео: DVDRip
Формат видео: AVI
Видео: XVID, 720x416, 16:9, 23.976 fps, 1799.3 kbps
Аудио: MP3, 48,0 КГц, 192 Кбит/сек, 2 канала

MediaInfo

Формат : AVI
Формат/Информация : Audio Video Interleave
Размер файла : 1,37 Гбайт
Продолжительность : 1 ч. 37 м.
Общий поток : 2001 Кбит/сек
Программа кодирования : VirtualDubMod 1.5.10.2 (build 2540/release)
Библиотека кодирования : VirtualDubMod build 2540/release
Видео
Идентификатор : 0
Формат : MPEG-4 Visual
Профиль формата : Advanced Simple@L5
Параметр BVOP формата : Нет
Параметр QPel формата : Нет
Параметр GMC формата : Без точки перехода
Параметр матрицы формата : Выборочная
Идентификатор кодека : XVID
Идентификатор кодека/Подсказка : XviD
Продолжительность : 1 ч. 37 м.
Битрейт : 1799 Кбит/сек
Ширина : 720 пикселей
Высота : 416 пикселей
Соотношение сторон : 1,731
Частота кадров : 23,976 кадра/сек
Цветовое пространство : YUV
Субдискретизация насыщенности : 4:2:0
Битовая глубина : 8 бит
Тип развёртки : Прогрессивная
Метод сжатия : С потерями
Бит/(Пиксели*Кадры) : 0.251
Размер потока : 1,23 Гбайт (90%)
Библиотека кодирования : XviD 64
Аудио
Идентификатор : 1
Формат : MPEG Audio
Версия формата : Version 1
Профиль формата : Layer 3
Режим : Joint stereo
Расширение режима : MS Stereo
Идентификатор кодека : 55
Идентификатор кодека/Подсказка : MP3
Продолжительность : 1 ч. 37 м.
Вид битрейта : Постоянный
Битрейт : 192 Кбит/сек
Каналы : 2 канала
Частота : 48,0 КГц
Метод сжатия : С потерями
Размер потока : 135 Мбайт (10%)
Выравнивание : Соединение по промежуткам
Продолжительность промежутка : 42 мс. (1,00 видеокадр)
Время предзагрузки промежутка : 504 мс.
Библиотека кодирования : LAME3.98r
Настройки программы : -m j -V 4 -q 0 -lowpass 18.6 -b 192
Язык : Japanese

Скриншот c названием фильма

Скриншоты



Последний раз редактировалось: Catastrophe (2013-02-18 08:58), всего редактировалось 1 раз
[Профиль] [ЛС]

Создавать темы 21-Янв-2013 09:26 (спустя 19 часа)

Топик был перенесен из форума Корейские фильмы в форум Японские фильмы

Ульяна Громова
 

lenivaya10002

Пол: Не указан

Стаж: 4 года 8 месяца

Сообщений: 37

Создавать темы 06-Мар-2013 12:12 (спустя 1 месяц 16 дня)

[Цитировать]

Выступает квартет дебилов!!!! Давненько я такого неадеквата не смотрел :))). Несколько раз громко засмеялся во время просмотра. Раскрыта тема мокрых штанов и философии хромых бегунов.
Достоинства:
- красивые актеры (дебильные роли не делают их некрасивыми);
- местами действительно смешно :) .
На ум, в качестве сравнения, приходит разве что эпизод с бегающим жирдяем, из фильма "Затойчи". Только тут их четыре и они все время в кадре.


















[Профиль] [ЛС]

Ульяна Громова

Пол: Не указан

Стаж: 4 года 10 месяца

Сообщений: 219

Создавать темы 06-Мар-2013 14:08 (спустя 1 час 56 минуты)

[Цитировать]

lenivaya10002, это Вы еще "Спасти зеленую планету" не смотрели и "Человека-зебру"))
[Профиль] [ЛС]

Alibaba

Пол: Не указан

Стаж: 4 года 1 месяц

Сообщений: 22

Создавать темы 09-Фев-2014 16:39 (спустя 11 месяца 3 дня)

[Цитировать]

Забавный фильмец!
[Профиль] [ЛС]
Показать сообщения:    
Ответить на тему

Текущее время: 18-Ноя 15:45

Часовой пояс: UTC ± 0



Вы не можете начинать темы
Вы не можете отвечать на сообщения
Вы не можете редактировать свои сообщения
Вы не можете удалять свои сообщения
Вы не можете голосовать в опросах
Вы не можете прикреплять файлы к сообщениям
Вы не можете скачивать файлы